VERSION	0.00.00	1.03.00
FES_MODE	0
BPM_DEF	102.000	172.000	172.000	102.000
MET_DEF	4	4
RESOLUTION	384
CLK_DEF	384
COMPATIBLE_CODE	MA2

BPM	0	0	102.000
BPM	9	0	172.000
MET	0	0	4	4

TAP	1	192	7
TAP	1	288	6
HLD	2	0	5	96
TAP	2	96	4
HLD	2	192	2	96
TAP	2	288	3
TAP	3	0	0
TAP	3	0	7
TAP	3	72	0
TAP	3	72	7
TAP	3	144	1
TAP	3	144	6
TAP	3	192	3
TAP	3	192	4
TAP	3	288	2
TAP	3	336	3
TAP	4	0	2
TAP	4	96	6
TAP	4	144	4
TAP	4	192	5
TAP	4	240	1
TAP	4	288	3
TAP	4	336	2
TAP	5	0	4
TAP	5	0	5
TAP	5	96	2
TAP	5	96	3
TAP	5	192	0
TAP	5	192	7
HLD	6	0	2	96
TAP	6	96	3
HLD	6	192	5	96
TAP	6	288	4
TAP	7	0	0
TAP	7	0	7
TAP	7	72	0
TAP	7	72	7
TAP	7	144	1
TAP	7	144	6
TAP	7	192	3
TAP	7	192	4
TAP	7	288	5
TAP	7	336	4
TAP	8	0	5
TAP	8	96	1
TAP	8	144	3
TAP	8	192	2
TAP	8	240	6
TAP	8	288	4
TAP	8	336	5
BRK	9	0	0
TAP	9	96	0
TAP	9	192	0
TAP	9	288	0
TAP	10	0	1
TAP	10	0	6
TAP	10	48	0
TAP	10	72	7
TAP	10	96	0
TAP	10	144	1
TAP	10	144	6
TAP	10	192	2
TAP	10	192	5
TAP	10	240	3
TAP	10	240	4
TAP	10	288	5
TAP	10	312	4
TAP	10	336	5
TAP	11	0	2
TAP	11	24	3
TAP	11	48	2
TAP	11	96	4
TAP	11	144	5
TAP	11	192	6
TAP	11	240	5
TAP	11	288	4
TAP	11	336	3
TAP	12	0	2
TAP	12	0	4
TAP	12	48	3
TAP	12	96	2
TAP	12	144	1
TAP	12	192	0
TAP	12	192	2
TAP	12	240	1
TAP	12	288	2
TAP	12	336	3
TAP	13	0	5
TAP	13	24	4
TAP	13	48	5
TAP	13	96	3
TAP	13	144	2
TAP	13	192	1
TAP	13	240	2
TAP	13	288	3
TAP	13	336	4
TAP	14	0	3
TAP	14	0	5
TAP	14	48	4
TAP	14	96	5
TAP	14	144	6
TAP	14	192	0
TAP	14	192	7
TAP	14	240	1
TAP	14	240	6
TAP	14	288	2
TAP	14	288	5
TAP	15	0	2
TAP	15	24	3
TAP	15	48	2
TAP	15	96	1
TAP	15	96	4
TAP	15	144	0
TAP	15	192	1
TAP	15	240	2
TAP	15	288	3
TAP	15	336	4
TAP	16	0	3
TAP	16	0	6
TAP	16	48	5
TAP	16	96	4
TAP	16	144	6
TAP	16	192	0
TAP	16	192	7
TAP	16	240	1
TAP	16	288	2
TAP	16	336	3
TAP	17	0	5
TAP	17	24	4
TAP	17	48	5
TAP	17	96	3
TAP	17	96	6
TAP	17	144	7
TAP	17	192	6
TAP	17	240	5
TAP	17	288	4
TAP	17	336	3
TAP	18	0	4
TAP	18	0	6
TAP	18	48	5
TAP	18	96	4
TAP	18	144	1
TAP	18	144	3
TAP	18	192	2
TAP	18	240	3
TAP	18	288	5
TAP	18	288	7
TAP	18	336	6
TAP	19	0	5
TAP	19	48	0
TAP	19	48	2
TAP	19	96	1
TAP	19	144	2
TAP	19	192	3
TAP	19	192	4
BRK	19	288	1
BRK	19	288	6
TAP	20	0	0
TAP	20	0	1
HLD	20	96	2	48
HLD	20	144	3	48
HLD	20	192	4	96
TAP	20	288	5
TAP	21	0	5
HLD	21	0	7	96
TAP	21	96	0
TAP	21	192	1
TAP	21	192	6
TAP	21	288	4
STR	22	0	0
SLR	22	0	0	96	96	4
STR	22	96	4
SLR	22	96	4	96	96	0
STR	22	192	0
SCR	22	192	0	96	96	4
STR	22	288	4
SI_	22	288	4	96	96	0
STR	23	0	0
SCL	23	0	0	96	96	4
SCR	23	0	0	96	96	4
TAP	23	288	1
TAP	23	288	5
TAP	24	0	6
TAP	24	0	7
HLD	24	96	5	48
HLD	24	144	4	48
HLD	24	192	3	96
TAP	24	288	2
HLD	25	0	0	96
TAP	25	0	2
TAP	25	96	7
TAP	25	192	1
TAP	25	192	6
TAP	25	288	3
STR	26	0	7
SLL	26	0	7	96	96	3
STR	26	96	3
SLL	26	96	3	96	96	7
STR	26	192	7
SCL	26	192	7	96	96	3
STR	26	288	3
SI_	26	288	3	96	96	7
STR	27	0	7
SCL	27	0	7	96	96	3
SCR	27	0	7	96	96	3
TAP	27	288	2
TAP	27	288	6
STR	28	0	1
SCR	28	0	1	96	48	4
TAP	28	96	1
STR	28	192	0
SCR	28	192	0	96	48	3
TAP	28	288	0
TAP	29	0	5
TAP	29	48	6
TAP	29	96	7
TAP	29	144	0
TAP	29	192	1
TAP	29	192	7
TAP	29	240	2
TAP	29	240	6
TAP	29	288	3
TAP	29	288	5
STR	30	0	4
SI_	30	0	4	96	48	0
STR	30	96	0
SI_	30	96	0	96	48	4
STR	30	192	4
SI_	30	192	4	96	48	0
TAP	30	288	0
TAP	31	0	1
TAP	31	48	1
TAP	31	96	2
TAP	31	144	2
STR	31	192	3
SV_	31	192	3	96	48	1
STR	31	192	7
SV_	31	192	7	96	48	5
STR	32	0	6
SCL	32	0	6	96	48	3
TAP	32	96	6
STR	32	192	7
SCL	32	192	7	96	48	4
TAP	32	288	7
TAP	33	0	2
TAP	33	48	1
TAP	33	96	0
TAP	33	144	7
TAP	33	192	0
TAP	33	192	6
TAP	33	240	1
TAP	33	240	5
TAP	33	288	2
TAP	33	288	4
STR	34	0	3
SI_	34	0	3	96	48	7
STR	34	96	7
SI_	34	96	7	96	48	3
STR	34	192	3
SI_	34	192	3	96	48	7
TAP	34	288	6
TAP	34	336	6
STR	35	0	1
SCR	35	0	1	96	192	5
STR	35	0	5
SCR	35	0	5	96	192	1
BRK	36	0	2
BRK	36	0	6
TAP	36	192	0
TAP	36	192	7
TAP	36	288	3
TAP	36	288	4
STR	37	0	2
SXR	37	0	2	96	48	0
STR	37	0	6
SXR	37	0	6	96	48	4
STR	37	192	1
SXL	37	192	1	96	48	3
STR	37	192	5
SXL	37	192	5	96	48	7
TAP	38	0	4
TAP	38	0	6
TAP	38	72	1
TAP	38	72	3
TAP	38	144	2
TAP	38	144	5
TAP	38	192	0
TAP	38	192	7
TAP	38	288	7
TAP	38	336	0
STR	39	0	1
SCR	39	0	1	96	48	4
TAP	39	96	0
TAP	39	144	7
STR	39	192	6
SCL	39	192	6	96	48	3
TAP	39	240	7
TAP	39	288	0
TAP	39	336	1
STR	40	0	2
SI_	40	0	2	96	48	7
TAP	40	96	2
STR	40	96	3
SI_	40	96	3	96	48	6
BRK	40	192	3
BRK	40	192	4
STR	41	0	1
SXL	41	0	1	96	48	3
STR	41	0	5
SXL	41	0	5	96	48	7
STR	41	192	2
SXR	41	192	2	96	48	0
STR	41	192	6
SXR	41	192	6	96	48	4
TAP	42	0	1
TAP	42	0	3
TAP	42	72	4
TAP	42	72	6
TAP	42	144	2
TAP	42	144	5
TAP	42	192	0
TAP	42	192	7
TAP	42	288	0
TAP	42	336	7
STR	43	0	6
SCL	43	0	6	96	48	3
TAP	43	96	7
TAP	43	144	0
STR	43	192	1
SCR	43	192	1	96	48	4
TAP	43	240	0
TAP	43	288	7
TAP	43	336	6
BST	44	0	5
SCR	44	0	5	96	192	2
TAP	45	0	4
TAP	45	0	6
TAP	45	72	4
TAP	45	72	5
TAP	45	144	1
TAP	45	144	3
TAP	45	216	2
TAP	45	216	3
TAP	45	288	4
TAP	45	336	3
TAP	46	0	1
TAP	46	0	4
TAP	46	72	2
TAP	46	72	3
TAP	46	144	3
TAP	46	144	6
TAP	46	216	4
TAP	46	216	5
TAP	46	288	3
TAP	46	336	4
STR	47	0	2
SCL	47	0	2	96	480	4
STR	47	0	5
SCR	47	0	5	96	480	3
TAP	48	336	0
HLD	48	336	5	96
TAP	49	48	4
TAP	49	96	3
TAP	49	96	6
TAP	49	144	2
TAP	49	144	7
TAP	49	192	1
TAP	49	216	0
TAP	49	240	1
HLD	49	336	2	96
TAP	49	336	7
TAP	50	48	3
TAP	50	96	1
TAP	50	96	4
TAP	50	144	0
TAP	50	144	5
TAP	50	192	6
TAP	50	216	7
TAP	50	240	6
TAP	50	336	0
TAP	50	336	7
TAP	51	0	6
TAP	51	24	5
TAP	51	48	4
TAP	51	72	1
TAP	51	96	2
TAP	51	120	3
TAP	51	144	5
TAP	51	168	4
TAP	51	192	3
TAP	51	240	1
TAP	51	288	0
HLD	51	336	2	96
TAP	51	336	7
TAP	52	48	3
TAP	52	96	1
TAP	52	96	4
TAP	52	144	0
HLD	52	144	5	96
TAP	52	240	4
TAP	52	336	2
TAP	52	336	7
TAP	53	48	3
TAP	53	96	2
TAP	53	96	4
TAP	53	144	5
TAP	53	192	3
TAP	53	192	7
TAP	53	216	2
TAP	53	216	6
TAP	53	240	1
TAP	53	240	5
TAP	53	336	0
TAP	53	336	4
TAP	54	48	4
TAP	54	96	3
TAP	54	96	5
TAP	54	144	2
TAP	54	192	0
TAP	54	192	4
TAP	54	216	1
TAP	54	216	5
TAP	54	240	2
TAP	54	240	6
TAP	54	336	3
TAP	54	336	7
TAP	55	48	1
TAP	55	96	2
TAP	55	144	3
TAP	55	192	7
TAP	55	216	0
TAP	55	240	7
TAP	55	288	6
TAP	55	336	5
TAP	56	0	4
TAP	56	48	4
TAP	56	96	5
TAP	56	96	6
TAP	56	144	5
TAP	56	144	6
TAP	56	192	3
TAP	56	240	3
TAP	56	288	1
TAP	56	288	2
TAP	56	336	1
TAP	56	336	2
TAP	57	0	0
TAP	57	0	7
TAP	57	48	0
TAP	57	48	7
TAP	57	96	1
TAP	57	96	6
TAP	57	144	1
TAP	57	144	6
TAP	57	192	0
TAP	57	216	7
TAP	57	240	0
TAP	57	264	7
TAP	57	288	0
TAP	57	312	7
TAP	57	336	0
TAP	57	360	7
BRK	58	0	0
TAP	58	48	1
TAP	58	96	2
TAP	58	144	3
TAP	58	240	6
TAP	58	288	5
TAP	58	336	4
TAP	59	48	3
TAP	59	96	4
TAP	59	144	3
TAP	59	240	5
TAP	59	288	2
TAP	60	0	0
TAP	60	0	7
TAP	60	96	5
TAP	60	144	3
TAP	60	192	7
TAP	60	240	2
TAP	60	288	4
TAP	60	336	0
TAP	61	0	4
TAP	61	0	5
TAP	61	96	2
TAP	61	96	3
BRK	61	192	0
BRK	61	192	7
STR	62	0	1
SUR	62	0	1	96	48	5
STR	62	0	5
SUR	62	0	5	96	48	1
STR	62	192	2
SUL	62	192	2	96	48	6
STR	62	192	6
SUL	62	192	6	96	48	2
TAP	63	0	1
TAP	63	0	3
TAP	63	72	4
TAP	63	72	6
TAP	63	144	2
TAP	63	144	5
TAP	63	192	0
TAP	63	192	7
STR	63	288	7
SI_	63	288	7	96	48	3
TAP	63	336	0
TAP	63	336	6
TAP	64	0	7
TAP	64	96	0
TAP	64	96	5
TAP	64	144	1
TAP	64	144	4
TAP	64	192	2
TAP	64	192	3
TAP	64	240	0
TAP	64	240	1
TAP	64	288	2
TAP	64	288	7
TAP	64	336	3
TAP	64	336	6
BRK	65	0	4
BST	65	0	5
SCR	65	0	5	96	192	2
TAP	65	192	4
TAP	65	288	3
STR	66	0	1
SI_	66	0	1	96	48	4
SI_	66	0	1	96	48	6
TAP	66	0	2
TAP	66	192	5
STR	66	192	6
SI_	66	192	6	96	48	1
SI_	66	192	6	96	48	3
TAP	67	0	4
TAP	67	0	6
TAP	67	72	1
TAP	67	72	3
TAP	67	144	2
TAP	67	144	5
TAP	67	192	0
TAP	67	192	7
TAP	67	288	0
TAP	67	336	7
STR	68	0	6
SXR	68	0	6	96	48	5
TAP	68	96	7
TAP	68	144	0
STR	68	192	1
SXL	68	192	1	96	48	2
TAP	68	240	0
TAP	68	288	7
TAP	68	336	6
STR	69	0	5
SI_	69	0	5	96	48	0
STR	69	96	4
SI_	69	96	4	96	48	1
TAP	69	96	5
BRK	69	192	3
BRK	69	192	4
TAP	70	0	1
STR	70	0	5
SI_	70	0	5	96	24	0
SI_	70	0	5	96	24	2
STR	70	192	2
SI_	70	192	2	96	24	5
SI_	70	192	2	96	24	7
TAP	70	192	6
TAP	71	0	1
TAP	71	0	3
TAP	71	72	4
TAP	71	72	6
TAP	71	144	2
TAP	71	144	5
TAP	71	192	0
TAP	71	192	7
TAP	71	288	7
TAP	71	336	0
STR	72	0	1
SXL	72	0	1	96	48	2
TAP	72	96	0
TAP	72	144	7
STR	72	192	6
SXR	72	192	6	96	48	5
TAP	72	240	7
TAP	72	288	0
TAP	72	336	1
BST	73	0	2
SCL	73	0	2	96	192	5
TAP	74	0	6
TAP	74	24	7
TAP	74	48	6
TAP	74	96	0
TAP	74	96	5
TAP	74	144	6
TAP	74	192	2
TAP	74	192	7
TAP	74	240	1
TAP	74	288	3
TAP	74	288	4
TAP	74	336	2
TAP	74	336	5
TAP	75	0	0
TAP	75	0	7
TAP	75	48	1
TAP	75	96	0
TAP	75	96	2
TAP	75	144	1
TAP	75	192	0
TAP	75	192	7
TAP	75	240	6
TAP	75	288	5
TAP	75	288	7
TAP	75	336	6
TAP	76	0	1
TAP	76	24	0
TAP	76	48	1
TAP	76	96	2
TAP	76	96	7
TAP	76	144	1
TAP	76	192	0
TAP	76	192	5
TAP	76	240	6
TAP	76	288	3
TAP	76	288	4
TAP	76	336	2
TAP	76	336	5
TAP	77	0	6
TAP	77	48	5
TAP	77	48	7
TAP	77	96	1
TAP	77	144	0
TAP	77	144	2
STR	77	192	3
SI_	77	192	3	96	48	0
STR	77	192	4
SI_	77	192	4	96	48	7
TAP	77	240	2
TAP	77	240	5
TAP	77	288	3
TAP	77	288	4
TAP	78	0	1
TAP	78	24	0
TAP	78	48	1
TAP	78	96	2
TAP	78	96	7
TAP	78	144	1
TAP	78	192	0
TAP	78	192	5
TAP	78	240	6
TAP	78	288	3
TAP	78	288	4
TAP	78	336	2
TAP	78	336	5
TAP	79	0	3
TAP	79	0	4
TAP	79	48	5
TAP	79	96	4
TAP	79	96	6
TAP	79	144	5
TAP	79	192	3
TAP	79	192	4
TAP	79	240	2
TAP	79	288	1
TAP	79	288	3
TAP	79	336	2
TAP	80	0	6
TAP	80	24	7
TAP	80	48	6
TAP	80	96	0
TAP	80	96	5
TAP	80	144	6
TAP	80	192	2
TAP	80	192	7
TAP	80	240	1
TAP	80	288	3
TAP	80	288	4
TAP	80	336	2
TAP	80	336	5
TAP	81	0	3
TAP	81	0	4
TAP	81	48	2
TAP	81	48	5
TAP	81	96	1
TAP	81	96	6
STR	81	192	0
SI_	81	192	0	96	48	4
TAP	81	192	7
TAP	81	288	0
TAP	81	288	2
TAP	82	0	3
TAP	82	48	2
TAP	82	48	7
TAP	82	96	1
TAP	82	120	0
TAP	82	144	1
TAP	82	192	0
STR	82	192	7
SI_	82	192	7	96	48	3
TAP	82	288	5
TAP	82	288	7
TAP	83	0	4
TAP	83	48	0
TAP	83	48	5
TAP	83	96	6
TAP	83	120	7
TAP	83	144	6
STR	83	192	0
SI_	83	192	0	96	48	3
TAP	83	192	7
STR	83	288	0
SI_	83	288	0	96	48	5
TAP	83	288	2
TAP	84	0	0
STR	84	0	7
SCL	84	0	7	96	1296	0
BST	87	240	7
SI_	87	240	7	96	24	3

T_REC_TAP	551
T_REC_BRK	13
T_REC_XTP	0
T_REC_HLD	16
T_REC_XHO	0
T_REC_STR	62
T_REC_BST	4
T_REC_XST	0
T_REC_TTP	0
T_REC_THO	0
T_REC_SLD	72
T_REC_ALL	718
T_NUM_TAP	613
T_NUM_BRK	17
T_NUM_HLD	16
T_NUM_SLD	72
T_NUM_ALL	718
T_JUDGE_TAP	630
T_JUDGE_HLD	36
T_JUDGE_SLD	72
T_JUDGE_ALL	738
TTM_EACHPAIRS	175
TTM_SCR_TAP	306500
TTM_SCR_BRK	44200
TTM_SCR_HLD	16000
TTM_SCR_SLD	108000
TTM_SCR_ALL	474700
TTM_SCR_S	458850
TTM_SCR_SS	473000
TTM_RAT_ACV	10035

