VERSION	0.00.00	1.03.00
FES_MODE	0
BPM_DEF	102.000	172.000	172.000	102.000
MET_DEF	4	4
RESOLUTION	384
CLK_DEF	384
COMPATIBLE_CODE	MA2

BPM	0	0	102.000
BPM	9	0	172.000
MET	0	0	4	4

HLD	2	0	2	192
HLD	2	192	3	192
HLD	3	0	4	192
TAP	3	192	5
HLD	4	0	5	192
HLD	4	192	4	192
HLD	5	0	3	192
TAP	5	192	2
HLD	6	0	2	192
HLD	6	192	0	192
HLD	7	0	7	192
TAP	7	192	5
HLD	8	0	5	192
HLD	8	192	7	192
STR	9	0	0
SCR	9	0	0	96	192	5
TAP	10	0	2
TAP	10	48	2
TAP	10	96	5
TAP	10	144	5
TAP	10	192	3
TAP	10	192	4
TAP	10	288	2
TAP	10	288	5
STR	11	0	6
SCL	11	0	6	96	48	3
TAP	11	0	7
TAP	11	192	2
TAP	11	240	2
TAP	11	288	1
TAP	11	288	3
TAP	12	0	5
TAP	12	48	5
TAP	12	96	4
TAP	12	144	6
TAP	12	192	3
TAP	12	240	5
TAP	12	288	4
TAP	13	0	0
STR	13	0	1
SCR	13	0	1	96	48	4
TAP	13	192	5
TAP	13	240	5
TAP	13	288	4
TAP	13	288	6
TAP	14	0	2
TAP	14	48	2
TAP	14	96	3
TAP	14	144	1
TAP	14	192	3
TAP	14	240	2
TAP	14	288	4
TAP	15	0	0
STR	15	0	1
SCR	15	0	1	96	48	4
TAP	15	192	5
TAP	15	240	5
TAP	15	288	4
TAP	15	288	6
TAP	16	0	2
TAP	16	48	2
TAP	16	96	3
TAP	16	144	1
TAP	16	192	4
TAP	16	240	2
TAP	16	288	3
STR	17	0	6
SCL	17	0	6	96	48	3
TAP	17	0	7
TAP	17	192	2
TAP	17	240	2
TAP	17	288	1
TAP	17	288	3
TAP	18	0	2
TAP	18	0	3
TAP	18	96	1
TAP	18	96	4
TAP	18	192	4
TAP	18	192	5
TAP	18	288	3
TAP	18	288	6
TAP	19	0	3
TAP	19	0	4
TAP	19	96	1
TAP	19	96	6
TAP	19	192	0
TAP	19	192	7
TAP	19	288	2
TAP	19	288	5
HLD	20	0	6	192
TAP	20	192	5
TAP	21	0	2
TAP	21	0	3
TAP	21	96	2
TAP	21	96	4
TAP	21	192	2
TAP	21	192	5
STR	22	0	5
SCL	22	0	5	96	96	2
STR	22	192	1
SUR	22	192	1	96	96	6
STR	23	0	7
SCL	23	0	7	96	192	2
HLD	24	0	1	192
TAP	24	192	2
TAP	25	0	4
TAP	25	0	5
TAP	25	96	3
TAP	25	96	5
TAP	25	192	2
TAP	25	192	5
STR	26	0	2
SCR	26	0	2	96	96	5
STR	26	192	6
SUL	26	192	6	96	96	1
BRK	27	0	0
TAP	27	192	3
TAP	27	192	4
HLD	28	0	5	96
TAP	28	96	4
HLD	28	192	1	96
TAP	28	288	0
TAP	29	0	2
TAP	29	0	3
STR	29	96	6
SCL	29	96	6	96	144	3
STR	29	96	7
SUL	29	96	7	96	144	2
HLD	30	0	1	96
TAP	30	96	2
HLD	30	192	6	96
TAP	30	288	5
TAP	31	0	0
TAP	31	0	7
TAP	31	96	1
TAP	31	96	6
TAP	31	192	3
TAP	31	192	4
HLD	32	0	2	96
TAP	32	96	3
HLD	32	192	6	96
TAP	32	288	7
TAP	33	0	0
TAP	33	0	1
STR	33	96	2
SCL	33	96	2	96	144	7
STR	33	96	3
SUL	33	96	3	96	144	6
HLD	34	0	5	96
TAP	34	96	4
HLD	34	192	2	96
TAP	34	288	3
STR	35	0	0
SCR	35	0	0	96	192	3
STR	35	0	7
SCL	35	0	7	96	192	4
BRK	36	0	1
BRK	36	0	6
STR	37	0	0
SI_	37	0	0	96	48	4
STR	37	0	1
SI_	37	0	1	96	48	3
STR	37	192	3
SI_	37	192	3	96	48	7
STR	37	192	4
SI_	37	192	4	96	48	6
TAP	38	0	0
TAP	38	0	7
TAP	38	72	0
TAP	38	72	7
TAP	38	144	1
TAP	38	144	6
TAP	38	192	1
TAP	38	192	6
TAP	38	288	1
TAP	38	336	1
TAP	39	0	0
TAP	39	96	5
TAP	39	144	5
TAP	39	192	4
TAP	39	288	3
TAP	39	288	6
STR	40	0	2
SI_	40	0	2	96	48	7
STR	40	0	3
SI_	40	0	3	96	48	6
TAP	40	192	0
TAP	40	192	5
STR	41	0	6
SI_	41	0	6	96	48	4
STR	41	0	7
SI_	41	0	7	96	48	3
STR	41	192	3
SI_	41	192	3	96	48	1
STR	41	192	4
SI_	41	192	4	96	48	0
TAP	42	0	0
TAP	42	0	7
TAP	42	72	0
TAP	42	72	7
TAP	42	144	1
TAP	42	144	6
TAP	42	192	1
TAP	42	192	6
TAP	42	288	6
TAP	42	336	6
TAP	43	0	7
TAP	43	96	2
TAP	43	144	2
TAP	43	192	3
TAP	43	288	1
TAP	43	288	4
TAP	44	0	4
STR	44	0	5
SCR	44	0	5	96	192	2
HLD	45	0	1	72
HLD	45	0	3	72
HLD	45	144	2	72
HLD	45	144	3	72
TAP	45	288	3
TAP	45	288	4
HLD	46	0	4	72
HLD	46	0	6	72
HLD	46	144	4	72
HLD	46	144	5	72
TAP	46	288	3
TAP	46	288	4
TAP	47	0	2
STR	47	0	5
SSR	47	0	5	96	384	1
HLD	48	336	7	144
TAP	49	48	6
TAP	49	96	6
TAP	49	192	2
TAP	49	192	3
TAP	49	240	1
TAP	49	240	4
HLD	49	336	0	144
TAP	50	48	1
TAP	50	96	1
TAP	50	192	4
TAP	50	192	5
TAP	50	240	3
TAP	50	240	6
STR	51	0	1
SI_	51	0	1	96	48	3
STR	51	96	7
SI_	51	96	7	96	48	5
STR	51	192	0
SI_	51	192	0	96	48	4
STR	51	288	7
SI_	51	288	7	96	48	3
STR	52	0	0
SI_	52	0	0	96	48	2
STR	52	96	6
SI_	52	96	6	96	48	4
BRK	52	192	7
HLD	52	336	3	144
TAP	53	48	2
TAP	53	96	2
TAP	53	192	6
TAP	53	192	7
TAP	53	240	0
TAP	53	240	5
HLD	53	336	4	144
TAP	54	48	5
TAP	54	96	5
TAP	54	192	0
TAP	54	192	1
TAP	54	240	2
TAP	54	240	7
STR	54	336	3
SCL	54	336	3	96	96	0
STR	54	336	4
SCR	54	336	4	96	96	7
TAP	55	192	1
TAP	55	192	6
TAP	55	288	3
TAP	55	288	4
HLD	56	0	6	96
HLD	56	96	7	96
HLD	56	192	0	96
HLD	56	288	1	96
STR	57	0	2
SCL	57	0	2	96	192	5
HLD	58	0	3	192
TAP	58	192	4
HLD	59	0	4	192
TAP	59	192	3
HLD	60	0	2	288
HLD	60	192	5	96
TAP	61	0	3
TAP	61	0	4
TAP	61	96	3
TAP	61	96	4
BRK	61	192	1
BRK	61	192	6
HLD	62	0	2	96
TAP	62	96	3
HLD	62	192	5	96
TAP	62	288	4
TAP	63	0	0
TAP	63	0	7
TAP	63	72	0
TAP	63	72	7
TAP	63	144	2
TAP	63	144	5
TAP	63	192	2
TAP	63	192	5
TAP	63	288	5
TAP	63	336	5
TAP	64	0	4
TAP	64	0	6
TAP	64	96	2
TAP	64	144	2
TAP	64	192	1
TAP	64	192	3
TAP	64	288	3
TAP	64	288	4
STR	65	0	1
SI_	65	0	1	96	144	5
STR	65	0	6
SI_	65	0	6	96	144	2
STR	66	0	6
SI_	66	0	6	96	48	3
STR	66	0	7
SI_	66	0	7	96	48	2
STR	66	192	2
SI_	66	192	2	96	48	7
STR	66	192	3
SI_	66	192	3	96	48	6
TAP	67	0	0
TAP	67	0	1
TAP	67	72	0
TAP	67	72	1
TAP	67	144	3
TAP	67	144	6
TAP	67	192	3
TAP	67	192	6
TAP	67	288	5
TAP	67	336	5
TAP	68	0	4
TAP	68	0	6
TAP	68	96	1
TAP	68	144	1
TAP	68	192	0
TAP	68	192	2
TAP	68	288	2
TAP	68	288	3
STR	69	0	4
SI_	69	0	4	96	48	1
STR	69	0	5
SI_	69	0	5	96	48	0
TAP	69	192	2
TAP	69	192	7
TAP	69	288	3
TAP	69	288	4
STR	70	0	0
SI_	70	0	0	96	48	5
STR	70	0	1
SI_	70	0	1	96	48	4
STR	70	192	4
SI_	70	192	4	96	48	1
STR	70	192	5
SI_	70	192	5	96	48	0
TAP	71	0	6
TAP	71	0	7
TAP	71	72	6
TAP	71	72	7
TAP	71	144	1
TAP	71	144	4
TAP	71	192	1
TAP	71	192	4
TAP	71	288	2
TAP	71	336	2
TAP	72	0	1
TAP	72	0	3
TAP	72	96	6
TAP	72	144	6
TAP	72	192	5
TAP	72	192	7
TAP	72	288	3
TAP	72	288	4
STR	73	0	1
SUR	73	0	1	96	192	5
STR	73	0	5
SUR	73	0	5	96	192	1
STR	74	0	6
SCL	74	0	6	96	48	3
TAP	74	0	7
TAP	74	192	2
TAP	74	240	2
TAP	74	288	3
TAP	74	336	1
TAP	75	0	6
TAP	75	48	6
TAP	75	96	7
TAP	75	144	5
TAP	75	192	0
TAP	75	240	6
TAP	75	288	7
TAP	76	0	0
STR	76	0	1
SCR	76	0	1	96	48	4
TAP	76	192	5
TAP	76	240	5
TAP	76	288	4
TAP	76	336	6
TAP	77	0	1
TAP	77	48	1
TAP	77	96	0
TAP	77	144	2
TAP	77	192	7
TAP	77	240	1
TAP	77	288	0
TAP	78	0	0
STR	78	0	1
SCR	78	0	1	96	48	4
TAP	78	192	5
TAP	78	240	5
TAP	78	288	4
TAP	78	336	6
TAP	79	0	1
TAP	79	48	1
TAP	79	96	0
TAP	79	144	2
TAP	79	192	7
TAP	79	240	1
TAP	79	288	0
STR	80	0	6
SCL	80	0	6	96	48	3
TAP	80	0	7
TAP	80	192	2
TAP	80	240	2
TAP	80	288	3
TAP	80	336	1
TAP	81	0	5
TAP	81	48	5
TAP	81	96	4
TAP	81	96	6
TAP	81	192	2
TAP	81	192	3
HLD	81	288	3	96
HLD	81	288	7	96
TAP	82	96	3
TAP	82	96	4
TAP	82	192	4
TAP	82	192	5
HLD	82	288	0	96
HLD	82	288	4	96
TAP	83	96	3
TAP	83	96	4
TAP	83	192	2
TAP	83	192	3
TAP	83	288	3
TAP	83	288	7
BST	84	0	1
SSR	84	0	1	96	864	5
HLD	84	0	4	1392

T_REC_TAP	293
T_REC_BRK	6
T_REC_XTP	0
T_REC_HLD	48
T_REC_XHO	0
T_REC_STR	55
T_REC_BST	1
T_REC_XST	0
T_REC_TTP	0
T_REC_THO	0
T_REC_SLD	56
T_REC_ALL	459
T_NUM_TAP	348
T_NUM_BRK	7
T_NUM_HLD	48
T_NUM_SLD	56
T_NUM_ALL	459
T_JUDGE_TAP	355
T_JUDGE_HLD	205
T_JUDGE_SLD	56
T_JUDGE_ALL	616
TTM_EACHPAIRS	116
TTM_SCR_TAP	174000
TTM_SCR_BRK	18200
TTM_SCR_HLD	48000
TTM_SCR_SLD	84000
TTM_SCR_ALL	324200
TTM_SCR_S	313800
TTM_SCR_SS	323500
TTM_RAT_ACV	10021

