VERSION	0.00.00	1.03.00
FES_MODE	0
BPM_DEF	102.000	172.000	172.000	102.000
MET_DEF	4	4
RESOLUTION	384
CLK_DEF	384
COMPATIBLE_CODE	MA2

BPM	0	0	102.000
BPM	9	0	172.000
MET	0	0	4	4

TAP	2	0	1
TAP	2	192	2
TAP	3	0	3
TAP	3	192	4
TAP	4	0	5
TAP	4	192	6
TAP	5	0	7
TAP	5	96	7
TAP	5	192	0
TAP	5	192	7
TAP	6	0	6
TAP	6	192	5
TAP	7	0	4
TAP	7	192	3
TAP	8	0	2
TAP	8	192	1
BRK	9	0	0
BRK	9	0	7
TAP	11	0	1
TAP	11	96	2
TAP	11	192	3
TAP	11	288	4
TAP	12	0	5
TAP	12	96	5
TAP	12	192	5
TAP	13	0	6
TAP	13	96	5
TAP	13	192	4
TAP	13	288	3
TAP	14	0	2
TAP	14	96	2
TAP	14	192	2
TAP	15	0	0
TAP	15	96	1
TAP	15	192	2
TAP	15	288	3
TAP	16	0	4
TAP	16	96	4
TAP	16	192	5
TAP	17	0	7
TAP	17	96	6
TAP	17	192	5
TAP	17	288	4
TAP	18	0	3
TAP	18	96	3
TAP	18	192	2
TAP	18	288	2
TAP	19	0	1
TAP	19	96	1
BRK	19	192	0
TAP	20	0	0
TAP	20	96	1
TAP	20	192	2
TAP	20	288	3
TAP	21	0	4
TAP	21	96	4
TAP	21	192	3
TAP	21	192	5
TAP	22	0	7
TAP	22	96	6
TAP	22	192	5
TAP	22	288	4
TAP	23	0	3
TAP	23	96	3
TAP	23	192	2
TAP	23	192	4
TAP	24	0	3
TAP	24	96	2
TAP	24	192	1
TAP	24	288	0
TAP	25	0	7
TAP	25	96	7
TAP	25	192	0
TAP	25	192	6
TAP	26	0	4
TAP	26	96	5
TAP	26	192	6
TAP	26	288	7
TAP	27	0	0
TAP	27	96	0
TAP	27	192	1
TAP	27	192	7
STR	28	0	0
SI_	28	0	0	96	96	3
STR	28	192	7
SI_	28	192	7	96	96	4
HLD	29	0	2	288
TAP	29	192	3
TAP	29	288	3
HLD	30	0	5	288
TAP	30	192	4
TAP	30	288	4
TAP	31	0	0
TAP	31	0	7
TAP	31	96	0
TAP	31	96	7
TAP	31	192	2
TAP	31	192	5
STR	32	0	4
SI_	32	0	4	96	96	7
STR	32	192	3
SI_	32	192	3	96	96	0
HLD	33	0	6	288
TAP	33	192	7
TAP	33	288	7
HLD	34	0	1	288
TAP	34	192	0
TAP	34	288	0
STR	35	0	7
SSR	35	0	7	96	288	3
BRK	36	0	0
TAP	36	192	7
TAP	36	288	6
HLD	37	0	5	96
TAP	37	96	4
HLD	37	192	2	96
TAP	37	288	3
TAP	38	0	3
TAP	38	0	4
TAP	38	96	3
TAP	38	96	4
TAP	38	192	4
TAP	38	192	5
TAP	39	0	6
TAP	39	96	5
TAP	39	192	4
TAP	39	288	3
TAP	40	0	2
TAP	40	0	3
TAP	40	96	2
TAP	40	96	3
TAP	40	192	0
TAP	40	192	7
HLD	41	0	2	96
TAP	41	96	3
HLD	41	192	5	96
TAP	41	288	4
TAP	42	0	3
TAP	42	0	4
TAP	42	96	3
TAP	42	96	4
TAP	42	192	2
TAP	42	192	3
TAP	43	0	1
TAP	43	96	2
TAP	43	192	3
TAP	43	288	4
STR	44	0	3
SCL	44	0	3	96	192	0
STR	44	0	4
SCR	44	0	4	96	192	7
STR	45	0	1
SLR	45	0	1	96	192	5
STR	46	0	6
SLL	46	0	6	96	192	2
STR	47	0	0
SCR	47	0	0	96	480	7
TAP	49	0	2
TAP	49	96	3
TAP	49	192	1
TAP	49	192	4
TAP	50	0	5
TAP	50	96	4
TAP	50	192	3
TAP	50	192	6
TAP	51	0	7
TAP	51	96	6
TAP	51	192	5
TAP	51	288	4
TAP	52	0	3
TAP	52	96	2
TAP	52	192	1
TAP	52	288	0
TAP	53	0	6
TAP	53	96	7
TAP	53	192	0
TAP	53	192	5
TAP	54	0	1
TAP	54	96	0
TAP	54	192	2
TAP	54	192	7
TAP	55	0	0
TAP	55	96	1
TAP	55	192	2
TAP	55	288	3
TAP	56	0	4
TAP	56	96	5
TAP	56	192	6
TAP	56	288	7
TAP	57	0	0
TAP	57	0	7
TAP	57	96	0
TAP	57	96	7
TAP	57	192	0
TAP	57	192	7
TAP	57	288	0
TAP	57	288	7
BST	58	0	1
SI_	58	0	1	96	96	4
STR	58	192	0
SI_	58	192	0	96	96	5
TAP	59	0	2
TAP	59	96	3
TAP	59	192	4
STR	60	0	6
SI_	60	0	6	96	96	3
STR	60	192	7
SI_	60	192	7	96	96	2
TAP	61	0	5
TAP	61	96	4
BRK	61	192	0
BRK	61	192	7
STR	62	0	0
SXL	62	0	0	96	96	2
STR	62	192	7
SXR	62	192	7	96	96	5
TAP	63	0	0
TAP	63	96	1
TAP	63	192	2
TAP	63	288	3
TAP	64	0	7
TAP	64	96	6
TAP	64	192	5
TAP	64	288	4
BRK	65	0	0
TAP	65	192	1
TAP	65	192	6
TAP	65	288	0
TAP	65	288	7
HLD	66	0	1	96
TAP	66	96	3
HLD	66	192	6	96
TAP	66	288	4
TAP	67	0	2
TAP	67	0	5
TAP	67	96	3
TAP	67	144	4
TAP	67	192	3
HLD	68	0	1	96
TAP	68	96	2
HLD	68	192	6	96
TAP	68	288	5
TAP	69	0	3
TAP	69	0	4
TAP	69	96	2
TAP	69	96	5
BRK	69	192	0
BRK	69	192	7
HLD	70	0	6	96
TAP	70	96	4
HLD	70	192	1	96
TAP	70	288	3
TAP	71	0	2
TAP	71	0	5
TAP	71	96	4
TAP	71	144	3
TAP	71	192	4
HLD	72	0	6	96
TAP	72	96	5
HLD	72	192	1	96
TAP	72	288	2
STR	73	0	3
SCL	73	0	3	96	192	0
STR	73	0	4
SCR	73	0	4	96	192	7
TAP	74	0	6
TAP	74	96	6
TAP	74	96	7
TAP	74	192	1
TAP	74	288	0
TAP	74	288	1
TAP	75	0	6
TAP	75	96	5
TAP	75	96	7
TAP	75	192	0
TAP	75	192	4
TAP	75	288	1
TAP	75	288	3
TAP	76	0	2
TAP	76	96	2
TAP	76	96	3
TAP	76	192	5
TAP	76	288	4
TAP	76	288	5
TAP	77	0	2
TAP	77	96	2
TAP	77	96	3
TAP	77	192	4
TAP	77	192	5
TAP	77	288	0
TAP	77	288	7
TAP	78	0	1
TAP	78	96	0
TAP	78	96	1
TAP	78	192	6
TAP	78	288	6
TAP	78	288	7
TAP	79	0	1
TAP	79	96	0
TAP	79	96	2
TAP	79	192	3
TAP	79	192	7
TAP	79	288	4
TAP	79	288	6
TAP	80	0	5
TAP	80	96	4
TAP	80	96	5
TAP	80	192	2
TAP	80	288	2
TAP	80	288	3
TAP	81	0	4
TAP	81	0	5
TAP	81	96	4
TAP	81	96	5
TAP	81	192	0
TAP	81	192	7
TAP	81	288	0
TAP	81	288	7
TAP	82	0	2
TAP	82	0	3
TAP	82	96	2
TAP	82	96	3
TAP	82	192	0
TAP	82	192	7
TAP	82	288	0
TAP	82	288	7
TAP	83	0	4
TAP	83	0	5
TAP	83	96	2
TAP	83	96	3
TAP	83	192	0
TAP	83	192	7
TAP	83	288	1
TAP	83	288	6
BST	84	0	0
SI_	84	0	0	96	288	3
SI_	84	0	0	96	288	5
BRK	84	0	7

T_REC_TAP	273
T_REC_BRK	10
T_REC_XTP	0
T_REC_HLD	16
T_REC_XHO	0
T_REC_STR	17
T_REC_BST	2
T_REC_XST	0
T_REC_TTP	0
T_REC_THO	0
T_REC_SLD	20
T_REC_ALL	338
T_NUM_TAP	290
T_NUM_BRK	12
T_NUM_HLD	16
T_NUM_SLD	20
T_NUM_ALL	338
T_JUDGE_TAP	302
T_JUDGE_HLD	48
T_JUDGE_SLD	20
T_JUDGE_ALL	370
TTM_EACHPAIRS	66
TTM_SCR_TAP	145000
TTM_SCR_BRK	31200
TTM_SCR_HLD	16000
TTM_SCR_SLD	30000
TTM_SCR_ALL	222200
TTM_SCR_S	214400
TTM_SCR_SS	221000
TTM_RAT_ACV	10054

