VERSION	0.00.00	1.03.00
FES_MODE	0
BPM_DEF	102.000	172.000	172.000	102.000
MET_DEF	4	4
RESOLUTION	384
CLK_DEF	384
COMPATIBLE_CODE	MA2

BPM	0	0	102.000
BPM	9	0	172.000
MET	0	0	4	4

TAP	2	0	0
TAP	3	0	0
TAP	4	0	1
TAP	5	0	1
TAP	6	0	2
TAP	7	0	2
TAP	8	0	3
STR	9	0	3
SI_	9	0	3	96	288	0
TAP	11	0	7
TAP	11	192	7
TAP	12	0	6
TAP	12	192	6
TAP	13	0	5
TAP	13	192	5
TAP	14	0	4
TAP	14	96	4
TAP	14	192	4
TAP	15	0	3
TAP	15	192	3
TAP	16	0	2
TAP	16	192	2
TAP	17	0	1
TAP	17	192	1
TAP	18	0	0
TAP	18	96	0
TAP	18	192	0
TAP	19	0	7
TAP	19	96	7
BRK	19	192	7
HLD	20	0	0	192
TAP	21	0	0
TAP	21	192	0
HLD	22	0	1	192
TAP	23	0	0
TAP	23	0	1
HLD	24	0	7	192
TAP	25	0	7
TAP	25	192	7
HLD	26	0	6	192
TAP	27	0	6
TAP	27	0	7
TAP	28	0	4
TAP	28	0	5
TAP	28	192	4
TAP	28	192	5
TAP	29	0	5
TAP	29	96	5
TAP	29	192	5
TAP	30	0	2
TAP	30	0	3
TAP	30	192	2
TAP	30	192	3
TAP	31	0	2
TAP	31	96	2
TAP	31	192	2
TAP	32	0	3
TAP	32	0	5
TAP	32	192	3
TAP	32	192	5
TAP	33	0	5
TAP	33	96	5
TAP	33	192	5
TAP	34	0	2
TAP	34	0	4
TAP	34	192	2
TAP	34	192	4
HLD	35	0	2	384
HLD	35	0	4	384
TAP	37	0	4
TAP	37	96	4
TAP	37	192	4
TAP	38	0	5
TAP	38	96	5
TAP	38	192	5
TAP	39	0	6
TAP	39	96	6
TAP	39	192	6
TAP	40	0	0
TAP	40	0	7
TAP	40	96	0
TAP	40	96	7
TAP	40	192	0
TAP	40	192	7
TAP	41	0	0
TAP	41	96	0
TAP	41	192	0
TAP	42	0	1
TAP	42	96	1
TAP	42	192	1
TAP	43	0	2
TAP	43	96	2
TAP	43	192	2
BRK	44	0	3
BRK	44	0	4
STR	45	0	3
SI_	45	0	3	96	288	0
STR	47	0	7
SI_	47	0	7	96	288	4
TAP	49	0	2
TAP	49	96	2
TAP	49	192	2
TAP	49	192	3
TAP	50	0	3
TAP	50	96	3
TAP	50	192	2
TAP	50	192	3
TAP	51	0	1
TAP	51	96	1
TAP	51	192	0
TAP	51	192	1
TAP	52	0	0
TAP	52	96	0
TAP	52	192	0
TAP	52	192	1
TAP	53	0	6
TAP	53	96	6
TAP	53	192	6
TAP	53	192	7
TAP	54	0	7
TAP	54	96	7
TAP	54	192	6
TAP	54	192	7
TAP	55	0	5
TAP	55	96	5
TAP	55	192	4
TAP	55	192	5
TAP	56	0	4
TAP	56	96	4
TAP	56	192	4
TAP	56	192	5
BRK	57	0	3
BRK	57	0	4
STR	58	0	3
SI_	58	0	3	96	288	0
STR	60	0	4
SI_	60	0	4	96	288	7
TAP	62	0	3
TAP	62	96	3
TAP	62	192	2
TAP	62	288	2
TAP	63	0	1
TAP	63	96	1
TAP	63	192	0
TAP	63	192	7
TAP	64	0	6
TAP	64	96	6
TAP	64	192	5
TAP	64	288	5
HLD	65	0	3	192
HLD	65	0	4	192
TAP	66	0	5
TAP	66	96	5
TAP	66	192	6
TAP	66	288	6
TAP	67	0	7
TAP	67	96	7
TAP	67	192	0
TAP	67	192	1
TAP	68	0	2
TAP	68	96	2
TAP	68	192	3
TAP	68	288	3
TAP	69	0	4
TAP	69	0	5
TAP	69	96	4
TAP	69	96	5
TAP	69	192	4
TAP	69	192	5
TAP	70	0	2
TAP	70	96	2
TAP	70	192	1
TAP	70	288	1
TAP	71	0	0
TAP	71	96	0
TAP	71	192	6
TAP	71	192	7
TAP	72	0	5
TAP	72	96	5
TAP	72	192	4
TAP	72	288	4
HLD	73	0	2	192
HLD	73	0	3	192
TAP	74	0	3
TAP	74	96	3
TAP	74	192	4
TAP	74	288	4
TAP	75	0	5
TAP	75	96	5
TAP	75	192	6
TAP	76	0	4
TAP	76	96	4
TAP	76	192	3
TAP	76	288	3
TAP	77	0	2
TAP	77	96	2
TAP	77	192	1
TAP	78	0	0
TAP	78	96	0
TAP	78	192	7
TAP	78	288	7
TAP	79	0	6
TAP	79	96	6
TAP	79	192	5
TAP	80	0	7
TAP	80	96	7
TAP	80	192	0
TAP	80	288	0
STR	81	0	1
SI_	81	0	1	96	288	5
STR	83	0	6
SI_	83	0	6	96	288	2

T_REC_TAP	183
T_REC_BRK	5
T_REC_XTP	0
T_REC_HLD	10
T_REC_XHO	0
T_REC_STR	7
T_REC_BST	0
T_REC_XST	0
T_REC_TTP	0
T_REC_THO	0
T_REC_SLD	7
T_REC_ALL	212
T_NUM_TAP	190
T_NUM_BRK	5
T_NUM_HLD	10
T_NUM_SLD	7
T_NUM_ALL	212
T_JUDGE_TAP	195
T_JUDGE_HLD	48
T_JUDGE_SLD	7
T_JUDGE_ALL	250
TTM_EACHPAIRS	32
TTM_SCR_TAP	95000
TTM_SCR_BRK	13000
TTM_SCR_HLD	10000
TTM_SCR_SLD	10500
TTM_SCR_ALL	128500
TTM_SCR_S	124200
TTM_SCR_SS	128000
TTM_RAT_ACV	10039

