VERSION	0.00.00	1.03.00
FES_MODE	0
BPM_DEF	159.000	159.000	159.000	159.000
MET_DEF	4	4
RESOLUTION	384
CLK_DEF	384
COMPATIBLE_CODE	MA2

BPM	0	0	159.000
MET	0	0	4	4

BRK	8	216	0
TAP	9	0	2
TAP	9	24	3
TAP	9	48	2
TAP	9	96	1
TAP	9	96	4
TAP	9	144	5
TAP	9	168	5
TAP	9	192	3
TAP	9	216	6
TAP	9	240	6
TAP	9	288	7
TAP	9	336	0
TAP	9	336	6
TAP	10	0	5
TAP	10	24	4
TAP	10	48	5
TAP	10	96	3
TAP	10	96	6
TAP	10	144	2
TAP	10	168	2
TAP	10	192	4
TAP	10	216	1
TAP	10	240	1
TAP	10	288	0
TAP	10	336	1
TAP	10	336	7
TAP	11	0	2
TAP	11	24	3
TAP	11	48	2
TAP	11	96	1
TAP	11	96	4
TAP	11	144	5
TAP	11	168	5
TAP	11	192	4
TAP	11	216	6
TAP	11	240	6
TAP	11	288	7
TAP	11	336	0
TAP	11	336	6
TAP	12	0	5
TAP	12	24	4
TAP	12	48	5
TAP	12	96	3
TAP	12	96	6
TAP	12	144	2
TAP	12	168	2
TAP	12	192	3
TAP	12	216	1
TAP	12	240	1
TAP	12	288	0
TAP	12	288	4
TAP	13	0	6
TAP	13	24	7
TAP	13	48	6
TAP	13	96	0
TAP	13	96	5
TAP	13	144	1
TAP	13	168	1
TAP	13	192	7
TAP	13	216	2
TAP	13	240	2
TAP	13	288	3
TAP	13	336	2
TAP	13	336	4
TAP	14	0	1
TAP	14	24	0
TAP	14	48	1
TAP	14	96	2
TAP	14	96	7
TAP	14	144	6
TAP	14	168	6
TAP	14	192	0
TAP	14	216	5
TAP	14	240	5
TAP	14	288	4
TAP	14	336	3
TAP	14	336	5
TAP	15	0	6
TAP	15	24	7
TAP	15	48	6
TAP	15	96	0
TAP	15	96	5
TAP	15	144	1
TAP	15	168	1
TAP	15	192	7
TAP	15	216	2
TAP	15	240	2
TAP	15	288	3
TAP	15	336	2
TAP	15	336	4
TAP	16	0	3
TAP	16	24	4
TAP	16	48	3
TAP	16	72	4
TAP	16	96	2
TAP	16	120	5
TAP	16	144	2
TAP	16	168	5
TAP	16	192	1
TAP	16	216	6
TAP	16	240	1
TAP	16	264	6
TAP	16	288	0
TAP	16	304	7
TAP	16	320	0
TAP	16	336	7
TAP	16	352	0
TAP	16	368	7
BRK	17	0	1
BRK	17	0	6
TAP	17	192	0
TAP	17	216	0
TAP	17	240	0
TAP	17	264	0
TAP	17	288	0
TAP	17	300	1
TAP	17	312	2
TAP	17	324	3
TAP	17	336	4
TAP	17	348	5
TAP	17	360	6
TAP	17	372	7
BST	18	0	0
SI_	18	0	0	96	48	4
BST	18	96	0
SCL	18	96	0	96	48	5
SCR	18	96	0	96	48	3
BST	18	192	0
SF_	18	192	0	96	48	4
BRK	18	288	0
TAP	19	0	1
TAP	19	0	7
TAP	19	24	2
TAP	19	24	6
TAP	19	48	3
TAP	19	48	5
TAP	19	96	2
TAP	19	120	3
TAP	19	168	5
TAP	19	192	4
TAP	19	240	1
TAP	19	264	3
TAP	19	312	6
TAP	19	336	4
STR	20	0	1
SI_	20	0	1	96	24	7
STR	20	0	5
SI_	20	0	5	96	24	3
STR	20	96	1
SI_	20	96	1	96	24	3
STR	20	96	5
SI_	20	96	5	96	24	7
TAP	20	192	1
TAP	20	192	5
TAP	20	288	0
TAP	20	288	4
TAP	20	336	3
TAP	20	336	7
TAP	21	0	0
TAP	21	0	6
TAP	21	24	1
TAP	21	24	5
TAP	21	48	2
TAP	21	48	4
TAP	21	96	5
TAP	21	120	4
TAP	21	168	2
TAP	21	192	3
TAP	21	240	6
TAP	21	264	4
TAP	21	312	1
TAP	21	336	3
STR	22	0	2
SI_	22	0	2	96	24	4
STR	22	0	6
SI_	22	0	6	96	24	0
STR	22	96	2
SI_	22	96	2	96	24	0
STR	22	96	6
SI_	22	96	6	96	24	4
TAP	22	192	2
TAP	22	192	6
TAP	22	288	3
TAP	22	288	7
TAP	22	336	0
TAP	22	336	4
TAP	23	0	1
TAP	23	0	7
TAP	23	24	2
TAP	23	24	6
TAP	23	48	3
TAP	23	48	5
TAP	23	96	2
TAP	23	120	3
TAP	23	168	5
TAP	23	192	4
TAP	23	240	1
TAP	23	264	3
TAP	23	312	6
TAP	23	336	4
STR	24	0	1
SCL	24	0	1	96	24	7
STR	24	0	5
SCL	24	0	5	96	24	3
STR	24	96	1
SCR	24	96	1	96	24	3
STR	24	96	5
SCR	24	96	5	96	24	7
TAP	24	192	1
TAP	24	192	5
TAP	24	288	0
TAP	24	288	4
TAP	24	336	3
TAP	24	336	7
TAP	25	0	0
TAP	25	0	6
TAP	25	24	1
TAP	25	24	5
TAP	25	48	2
TAP	25	48	4
TAP	25	96	5
TAP	25	120	4
TAP	25	168	2
TAP	25	192	3
TAP	25	240	6
TAP	25	264	4
TAP	25	312	1
TAP	25	336	3
BST	26	0	7
SI_	26	0	7	96	48	3
BST	26	96	7
SCL	26	96	7	96	48	4
SCR	26	96	7	96	48	2
BST	26	192	7
SF_	26	192	7	96	48	3
BRK	26	288	7
TAP	27	0	0
STR	27	0	6
SCL	27	0	6	96	48	4
TAP	27	72	1
TAP	27	144	2
TAP	27	192	3
STR	27	192	4
SCR	27	192	4	96	48	6
TAP	27	216	3
TAP	27	288	3
TAP	27	336	2
TAP	28	0	1
STR	28	0	6
SCL	28	0	6	96	48	3
TAP	28	72	0
TAP	28	144	1
TAP	28	192	2
STR	28	192	3
SCR	28	192	3	96	48	6
TAP	28	216	2
TAP	28	288	2
TAP	28	336	1
STR	29	0	1
SCR	29	0	1	96	48	3
TAP	29	0	7
TAP	29	72	6
TAP	29	144	5
STR	29	192	3
SCL	29	192	3	96	48	1
TAP	29	192	4
TAP	29	216	4
TAP	29	288	4
TAP	29	336	5
STR	30	0	1
SCR	30	0	1	96	48	4
TAP	30	0	6
TAP	30	72	7
TAP	30	144	6
STR	30	192	4
SCL	30	192	4	96	48	1
TAP	30	192	5
TAP	30	216	5
TAP	30	288	5
TAP	30	336	6
TAP	31	0	3
STR	31	0	5
SCR	31	0	5	96	48	7
TAP	31	72	2
TAP	31	144	1
TAP	31	192	0
STR	31	192	7
SCL	31	192	7	96	48	5
TAP	31	216	0
TAP	31	288	0
TAP	31	336	1
TAP	32	0	2
STR	32	0	5
SCR	32	0	5	96	48	0
TAP	32	72	3
TAP	32	144	2
STR	32	192	0
SCL	32	192	0	96	48	5
TAP	32	192	1
TAP	32	216	1
TAP	32	288	1
TAP	32	336	2
STR	33	0	2
SCL	33	0	2	96	48	0
TAP	33	0	4
TAP	33	72	5
TAP	33	144	6
STR	33	192	0
SCR	33	192	0	96	48	2
TAP	33	192	7
TAP	33	216	7
TAP	33	288	7
TAP	33	336	6
STR	34	0	2
SCL	34	0	2	96	48	7
TAP	34	0	5
TAP	34	72	4
TAP	34	144	5
TAP	34	192	6
STR	34	192	7
SCR	34	192	7	96	48	2
TAP	34	216	6
TAP	34	288	6
TAP	34	336	5
TAP	35	0	4
TAP	35	24	4
TAP	35	72	3
TAP	35	96	3
TAP	35	144	2
TAP	35	168	2
TAP	35	216	1
TAP	35	240	1
TAP	35	288	0
TAP	35	336	1
TAP	35	336	7
TAP	36	0	0
TAP	36	24	5
TAP	36	48	1
TAP	36	72	6
TAP	36	96	2
TAP	36	120	7
TAP	36	144	3
TAP	36	168	6
TAP	36	192	2
TAP	36	216	5
TAP	36	240	1
TAP	36	264	4
HLD	36	288	0	96
TAP	37	0	3
TAP	37	24	3
TAP	37	72	4
TAP	37	96	4
TAP	37	144	5
TAP	37	168	5
TAP	37	216	6
TAP	37	240	6
TAP	37	288	7
TAP	37	336	0
TAP	37	336	6
TAP	38	0	7
TAP	38	24	2
TAP	38	48	6
TAP	38	72	1
TAP	38	96	5
TAP	38	120	0
TAP	38	144	4
TAP	38	168	1
TAP	38	192	5
TAP	38	216	2
TAP	38	240	6
TAP	38	264	3
HLD	38	288	7	96
TAP	39	0	4
TAP	39	24	4
TAP	39	72	3
TAP	39	96	3
TAP	39	144	2
TAP	39	168	2
TAP	39	216	1
TAP	39	240	1
TAP	39	288	0
TAP	39	336	1
TAP	39	336	7
TAP	40	0	0
TAP	40	24	5
TAP	40	48	1
TAP	40	72	6
TAP	40	96	2
TAP	40	120	7
TAP	40	144	3
TAP	40	168	6
TAP	40	192	2
TAP	40	216	5
TAP	40	240	1
TAP	40	264	4
STR	40	288	0
SF_	40	288	0	96	72	4
BRK	41	0	0
TAP	41	144	1
TAP	41	144	7
TAP	41	168	1
TAP	41	168	7
TAP	41	216	0
TAP	41	216	6
TAP	41	240	0
TAP	41	240	6
TAP	41	288	2
TAP	41	288	3
TAP	41	336	4
TAP	41	336	5
TAP	42	0	3
TAP	42	24	4
TAP	42	48	2
TAP	42	72	5
TAP	42	96	3
TAP	42	120	4
TAP	42	144	1
TAP	42	168	6
TAP	42	192	3
TAP	42	216	4
TAP	42	240	0
TAP	42	264	7
TAP	42	288	1
TAP	42	312	6
TAP	42	336	2
TAP	42	360	5
TAP	43	0	0
HLD	43	48	0	72
TAP	43	120	2
TAP	43	192	4
TAP	43	192	6
HLD	43	264	3	72
TAP	43	336	1
TAP	44	0	7
HLD	44	48	7	72
TAP	44	120	5
TAP	44	192	1
TAP	44	192	3
HLD	44	264	4	72
TAP	44	336	6
TAP	45	0	0
HLD	45	48	0	72
TAP	45	120	1
TAP	45	192	3
TAP	45	192	4
HLD	45	264	7	72
TAP	45	336	6
TAP	46	0	3
TAP	46	0	4
TAP	46	48	2
TAP	46	48	5
TAP	46	96	1
TAP	46	96	6
TAP	46	120	1
TAP	46	120	6
TAP	46	144	1
TAP	46	144	6
STR	46	192	0
SI_	46	192	0	96	48	4
STR	46	192	7
SI_	46	192	7	96	48	3
TAP	46	240	2
TAP	46	240	5
BRK	46	288	0
BRK	46	288	7
TAP	47	0	3
HLD	47	48	3	72
TAP	47	120	1
TAP	47	192	5
TAP	47	192	7
HLD	47	264	0	72
TAP	47	336	2
TAP	48	0	4
HLD	48	48	4	72
TAP	48	120	6
TAP	48	192	0
TAP	48	192	2
HLD	48	264	7	72
TAP	48	336	5
TAP	49	0	3
HLD	49	48	3	72
TAP	49	120	2
TAP	49	192	0
TAP	49	192	7
HLD	49	264	4	72
TAP	49	336	5
TAP	50	0	6
TAP	50	48	5
TAP	50	48	7
TAP	50	96	1
TAP	50	144	0
TAP	50	144	2
STR	50	192	3
SCL	50	192	3	96	48	0
STR	50	192	4
SCR	50	192	4	96	48	7
BRK	50	288	3
BRK	50	288	4
TAP	51	0	1
STR	51	0	6
SCL	51	0	6	96	48	3
TAP	51	72	0
TAP	51	144	1
TAP	51	192	2
STR	51	192	3
SCR	51	192	3	96	48	6
TAP	51	216	2
TAP	51	288	2
TAP	51	336	1
TAP	52	0	0
TAP	52	0	7
TAP	52	72	3
TAP	52	72	4
BST	52	144	1
SLR	52	144	1	96	96	7
BST	52	144	6
SLL	52	144	6	96	96	0
STR	53	0	1
SCR	53	0	1	96	48	4
TAP	53	0	6
TAP	53	72	7
TAP	53	144	6
STR	53	192	4
SCL	53	192	4	96	48	1
TAP	53	192	5
TAP	53	216	5
TAP	53	288	5
TAP	53	336	6
TAP	54	0	0
TAP	54	0	7
TAP	54	72	3
TAP	54	72	4
TAP	54	144	1
TAP	54	144	6
STR	54	192	0
SI_	54	192	0	96	48	4
STR	54	192	7
SI_	54	192	7	96	48	3
TAP	54	240	2
TAP	54	240	5
BRK	54	288	0
BRK	54	288	7
TAP	55	0	2
STR	55	0	5
SCR	55	0	5	96	48	0
TAP	55	72	3
TAP	55	144	2
STR	55	192	0
SCL	55	192	0	96	48	5
TAP	55	192	1
TAP	55	216	1
TAP	55	288	1
TAP	55	336	2
STR	56	0	3
SI_	56	0	3	96	24	6
STR	56	0	4
SI_	56	0	4	96	24	1
TAP	56	72	3
TAP	56	72	4
BST	56	144	0
SXL	56	144	0	96	96	3
BST	56	144	7
SXR	56	144	7	96	96	4
STR	57	0	2
SCL	57	0	2	96	48	7
TAP	57	0	5
TAP	57	72	4
TAP	57	144	5
TAP	57	192	6
STR	57	192	7
SCR	57	192	7	96	48	2
TAP	57	216	6
TAP	57	288	6
TAP	57	336	5
TAP	58	0	3
TAP	58	0	4
BRK	58	72	0
TAP	58	72	2
TAP	58	144	3
TAP	58	144	4
TAP	58	216	5
BRK	58	216	7
TAP	58	288	3
TAP	58	288	4
TAP	58	336	2
TAP	58	336	5
STR	59	0	0
SI_	59	0	0	96	24	2
TAP	59	0	7
TAP	59	72	7
STR	59	96	0
SI_	59	96	0	96	48	4
TAP	59	96	7
TAP	59	144	6
STR	59	192	0
SI_	59	192	0	96	48	3
TAP	59	192	5
TAP	59	216	5
STR	59	288	0
SI_	59	288	0	96	48	5
TAP	59	288	5
TAP	59	336	6
STR	60	0	0
SI_	60	0	0	96	24	2
TAP	60	0	7
TAP	60	72	7
STR	60	96	0
SI_	60	96	0	96	48	4
TAP	60	96	7
TAP	60	144	6
STR	60	192	0
SI_	60	192	0	96	48	3
TAP	60	192	5
TAP	60	216	5
TAP	60	288	5
TAP	60	336	6
TAP	61	0	0
STR	61	0	7
SI_	61	0	7	96	24	5
TAP	61	72	0
TAP	61	96	0
STR	61	96	7
SI_	61	96	7	96	48	3
TAP	61	144	1
TAP	61	192	2
STR	61	192	7
SI_	61	192	7	96	48	4
TAP	61	216	2
TAP	61	288	2
STR	61	288	7
SI_	61	288	7	96	48	2
TAP	61	336	1
TAP	62	0	0
STR	62	0	7
SI_	62	0	7	96	24	5
TAP	62	72	0
TAP	62	96	0
STR	62	96	7
SI_	62	96	7	96	48	3
TAP	62	144	1
TAP	62	192	2
STR	62	192	7
SI_	62	192	7	96	48	4
TAP	62	216	2
TAP	62	288	2
TAP	62	336	1
STR	63	0	0
SI_	63	0	0	96	24	2
TAP	63	0	7
TAP	63	72	7
STR	63	96	0
SI_	63	96	0	96	48	4
TAP	63	96	7
TAP	63	144	6
STR	63	192	0
SI_	63	192	0	96	48	3
TAP	63	192	5
TAP	63	216	5
TAP	63	288	5
TAP	63	336	6
TAP	64	0	0
STR	64	0	7
SI_	64	0	7	96	24	5
TAP	64	72	0
TAP	64	96	0
STR	64	96	7
SI_	64	96	7	96	48	3
TAP	64	144	1
TAP	64	192	2
STR	64	192	7
SI_	64	192	7	96	48	4
TAP	64	216	2
TAP	64	288	2
TAP	64	336	1
STR	65	0	0
SI_	65	0	0	96	24	2
TAP	65	0	7
TAP	65	72	7
STR	65	96	0
SI_	65	96	0	96	48	4
TAP	65	96	7
TAP	65	144	6
STR	65	192	0
SI_	65	192	0	96	48	3
TAP	65	192	5
TAP	65	216	5
TAP	65	288	5
TAP	65	336	6
BST	66	0	1
SXL	66	0	1	96	144	5
BST	66	0	5
SXL	66	0	5	96	144	1
BRK	66	288	3
BRK	66	288	7

T_REC_TAP	503
T_REC_BRK	16
T_REC_XTP	0
T_REC_HLD	14
T_REC_XHO	0
T_REC_STR	68
T_REC_BST	12
T_REC_XST	0
T_REC_TTP	0
T_REC_THO	0
T_REC_SLD	82
T_REC_ALL	695
T_NUM_TAP	571
T_NUM_BRK	28
T_NUM_HLD	14
T_NUM_SLD	82
T_NUM_ALL	695
T_JUDGE_TAP	599
T_JUDGE_HLD	28
T_JUDGE_SLD	82
T_JUDGE_ALL	709
TTM_EACHPAIRS	136
TTM_SCR_TAP	285500
TTM_SCR_BRK	72800
TTM_SCR_HLD	14000
TTM_SCR_SLD	123000
TTM_SCR_ALL	495300
TTM_SCR_S	477750
TTM_SCR_SS	492500
TTM_RAT_ACV	10056

