VERSION	0.00.00	1.03.00
FES_MODE	0
BPM_DEF	159.000	159.000	159.000	159.000
MET_DEF	4	4
RESOLUTION	384
CLK_DEF	384
COMPATIBLE_CODE	MA2

BPM	0	0	159.000
MET	0	0	4	4

TAP	9	0	2
TAP	9	0	5
TAP	9	48	0
TAP	9	96	7
TAP	9	192	3
TAP	9	288	6
TAP	9	288	7
TAP	10	0	4
TAP	10	96	0
TAP	10	96	1
TAP	10	192	3
TAP	10	288	6
TAP	10	288	7
TAP	11	0	4
TAP	11	96	0
TAP	11	96	2
TAP	11	192	3
TAP	11	288	5
TAP	11	288	7
TAP	12	0	4
TAP	12	96	0
TAP	12	96	2
TAP	12	192	3
TAP	12	288	5
TAP	12	288	7
TAP	13	0	3
TAP	13	0	4
TAP	13	48	6
TAP	13	96	1
TAP	13	192	5
TAP	13	288	0
TAP	13	288	1
TAP	14	0	2
TAP	14	96	6
TAP	14	96	7
TAP	14	192	5
TAP	14	288	0
TAP	14	288	1
TAP	15	0	2
TAP	15	96	0
TAP	15	96	6
TAP	15	192	5
TAP	15	288	1
TAP	15	288	7
TAP	16	0	2
TAP	16	96	0
TAP	16	96	6
TAP	16	192	5
TAP	16	240	0
BRK	16	336	1
BRK	16	336	7
STR	18	0	4
SI_	18	0	4	96	48	0
STR	18	96	2
SI_	18	96	2	96	48	7
STR	18	192	5
SI_	18	192	5	96	48	0
STR	18	288	3
SI_	18	288	3	96	48	7
BRK	19	0	4
TAP	19	48	4
TAP	19	96	1
TAP	19	96	6
TAP	19	192	3
TAP	19	288	1
TAP	19	288	6
STR	20	0	0
SI_	20	0	0	96	48	4
STR	20	96	6
SI_	20	96	6	96	48	3
STR	20	192	1
SI_	20	192	1	96	48	4
STR	20	288	7
SI_	20	288	7	96	48	3
TAP	21	0	0
TAP	21	48	0
TAP	21	96	2
TAP	21	96	5
TAP	21	192	7
TAP	21	288	2
TAP	21	288	5
STR	22	0	6
SI_	22	0	6	96	48	3
STR	22	96	7
SI_	22	96	7	96	48	2
STR	22	192	5
SI_	22	192	5	96	48	3
STR	22	288	0
SI_	22	288	0	96	48	2
TAP	23	0	6
TAP	23	48	6
TAP	23	96	1
TAP	23	96	4
TAP	23	192	7
TAP	23	288	1
TAP	23	288	4
STR	24	0	1
SI_	24	0	1	96	48	4
STR	24	96	0
SI_	24	96	0	96	48	5
STR	24	192	2
SI_	24	192	2	96	48	4
STR	24	288	7
SI_	24	288	7	96	48	5
TAP	25	0	1
TAP	25	48	1
TAP	25	96	3
TAP	25	96	6
TAP	25	192	0
TAP	25	288	3
TAP	25	288	6
TAP	26	0	3
TAP	26	0	4
TAP	26	96	5
TAP	26	96	6
TAP	26	192	0
TAP	26	192	7
TAP	26	288	1
TAP	26	288	2
BRK	27	0	3
BST	27	0	4
SCR	27	0	4	96	192	3
TAP	28	0	6
TAP	28	0	7
TAP	28	72	5
TAP	28	72	7
TAP	28	144	0
TAP	28	144	1
TAP	28	216	0
TAP	28	216	2
TAP	28	288	3
TAP	28	288	4
TAP	28	336	3
TAP	28	336	4
BST	29	0	3
SCL	29	0	3	96	192	4
BRK	29	0	4
TAP	30	0	0
TAP	30	0	2
TAP	30	72	0
TAP	30	72	1
TAP	30	144	5
TAP	30	144	7
TAP	30	216	6
TAP	30	216	7
TAP	30	288	1
TAP	30	288	6
TAP	30	336	1
TAP	30	336	6
BST	31	0	3
SCL	31	0	3	96	192	4
BST	31	0	4
SCR	31	0	4	96	192	3
TAP	32	0	6
TAP	32	0	7
TAP	32	72	4
TAP	32	72	6
TAP	32	144	0
TAP	32	144	1
TAP	32	216	1
TAP	32	216	3
TAP	32	288	2
TAP	32	288	5
TAP	32	336	2
TAP	32	336	5
BST	33	0	3
SCL	33	0	3	96	192	4
BST	33	0	4
SCR	33	0	4	96	192	3
TAP	34	0	2
TAP	34	0	5
TAP	34	72	2
TAP	34	72	5
TAP	34	144	3
TAP	34	144	4
TAP	34	216	1
TAP	34	216	6
TAP	34	288	0
TAP	34	288	7
TAP	34	336	0
TAP	34	336	7
TAP	35	0	6
TAP	35	24	7
TAP	35	72	7
TAP	35	96	6
TAP	35	144	1
TAP	35	168	0
TAP	35	216	0
TAP	35	240	1
TAP	35	288	6
TAP	35	336	6
TAP	36	0	2
TAP	36	48	2
TAP	36	96	3
TAP	36	144	3
TAP	36	192	4
TAP	36	240	4
TAP	36	288	5
TAP	37	0	1
TAP	37	24	0
TAP	37	72	0
TAP	37	96	1
TAP	37	144	6
TAP	37	168	7
TAP	37	216	7
TAP	37	240	6
TAP	37	288	1
TAP	37	336	1
TAP	38	0	5
TAP	38	48	5
TAP	38	96	4
TAP	38	144	4
TAP	38	192	3
TAP	38	240	3
TAP	38	288	2
TAP	39	0	6
TAP	39	24	7
TAP	39	72	7
TAP	39	96	5
TAP	39	144	1
TAP	39	168	0
TAP	39	216	0
TAP	39	240	2
TAP	39	288	6
TAP	39	336	6
TAP	40	0	2
TAP	40	48	2
TAP	40	96	3
TAP	40	144	3
TAP	40	192	4
TAP	40	240	4
TAP	40	288	5
TAP	41	0	1
TAP	41	24	0
TAP	41	72	0
TAP	41	96	2
TAP	41	144	6
TAP	41	168	7
TAP	41	216	7
TAP	41	240	5
TAP	41	288	1
TAP	41	336	1
TAP	42	0	2
TAP	42	0	3
TAP	42	96	4
TAP	42	96	5
TAP	42	192	6
TAP	42	192	7
TAP	42	288	0
TAP	42	288	1
BRK	43	0	2
BRK	43	0	5
TAP	43	96	1
STR	43	192	4
SI_	43	192	4	96	48	0
TAP	43	192	5
TAP	43	288	6
TAP	44	0	2
STR	44	0	3
SI_	44	0	3	96	48	7
TAP	44	96	1
STR	44	192	4
SI_	44	192	4	96	48	0
TAP	44	192	5
TAP	44	288	6
TAP	45	0	2
STR	45	0	3
SI_	45	0	3	96	48	7
TAP	45	96	0
STR	45	192	4
SI_	45	192	4	96	48	0
TAP	45	192	5
TAP	45	288	7
TAP	46	0	2
TAP	46	0	3
STR	46	96	0
SUR	46	96	0	96	144	3
TAP	46	192	4
BRK	47	0	1
BRK	47	0	6
TAP	47	96	7
TAP	47	192	2
STR	47	192	3
SI_	47	192	3	96	48	7
TAP	47	240	2
TAP	47	288	1
STR	48	0	4
SI_	48	0	4	96	48	0
TAP	48	0	5
TAP	48	48	5
TAP	48	96	6
TAP	48	192	2
STR	48	192	3
SI_	48	192	3	96	48	7
TAP	48	240	2
TAP	48	288	1
STR	49	0	4
SI_	49	0	4	96	48	0
TAP	49	0	5
TAP	49	48	5
TAP	49	96	7
TAP	49	192	2
STR	49	192	3
SI_	49	192	3	96	48	7
TAP	49	240	2
TAP	49	288	0
STR	50	0	1
SI_	50	0	1	96	48	3
STR	50	96	7
SI_	50	96	7	96	48	5
STR	50	192	0
SI_	50	192	0	96	48	4
TAP	50	288	7
TAP	51	0	1
TAP	51	0	5
TAP	51	72	1
TAP	51	72	5
TAP	51	144	2
TAP	51	144	6
TAP	51	216	2
TAP	51	216	6
TAP	51	288	3
TAP	51	288	7
TAP	51	336	3
TAP	51	336	7
BRK	52	0	0
BRK	52	0	4
TAP	52	72	1
TAP	52	72	6
STR	52	144	3
SCL	52	144	3	96	48	0
STR	52	144	4
SCR	52	144	4	96	48	7
TAP	53	0	2
TAP	53	0	6
TAP	53	72	2
TAP	53	72	6
TAP	53	144	1
TAP	53	144	5
TAP	53	216	1
TAP	53	216	5
TAP	53	288	0
TAP	53	288	4
TAP	53	336	0
TAP	53	336	4
BRK	54	0	3
BRK	54	0	7
TAP	54	72	2
TAP	54	72	5
STR	54	144	0
SCR	54	144	0	96	48	3
STR	54	144	7
SCL	54	144	7	96	48	4
TAP	55	0	2
TAP	55	0	3
TAP	55	72	2
TAP	55	72	3
TAP	55	144	1
TAP	55	144	4
TAP	55	216	1
TAP	55	216	4
TAP	55	288	0
TAP	55	288	5
TAP	55	336	0
TAP	55	336	5
BRK	56	0	6
BRK	56	0	7
TAP	56	72	1
TAP	56	72	2
STR	56	144	3
SI_	56	144	3	96	48	0
STR	56	144	4
SI_	56	144	4	96	48	7
TAP	57	0	6
TAP	57	0	7
TAP	57	72	6
TAP	57	72	7
TAP	57	144	0
TAP	57	144	5
TAP	57	216	0
TAP	57	216	5
TAP	57	288	1
TAP	57	288	4
TAP	57	336	1
TAP	57	336	4
BRK	58	0	2
BRK	58	0	3
TAP	58	72	5
TAP	58	72	6
TAP	58	144	0
TAP	58	144	7
TAP	58	216	2
TAP	58	288	1
TAP	58	336	0
TAP	59	0	5
TAP	59	0	7
TAP	59	72	0
TAP	59	72	6
TAP	59	144	1
TAP	59	144	7
TAP	59	216	4
TAP	59	288	1
TAP	59	336	1
TAP	60	0	0
TAP	60	0	2
TAP	60	72	1
TAP	60	72	7
TAP	60	144	0
TAP	60	144	6
TAP	60	216	3
TAP	60	288	6
TAP	60	336	6
TAP	61	0	5
TAP	61	0	7
TAP	61	72	0
TAP	61	72	6
TAP	61	144	1
TAP	61	144	7
TAP	61	216	4
TAP	61	288	1
TAP	61	336	1
TAP	62	0	0
TAP	62	0	2
TAP	62	72	1
TAP	62	72	7
TAP	62	144	0
TAP	62	144	6
TAP	62	216	3
TAP	62	288	6
TAP	62	336	6
TAP	63	0	6
TAP	63	0	7
TAP	63	72	0
TAP	63	72	1
TAP	63	144	6
TAP	63	144	7
TAP	63	216	3
TAP	63	288	2
TAP	63	288	7
TAP	63	336	2
TAP	63	336	7
TAP	64	0	0
TAP	64	0	1
TAP	64	72	6
TAP	64	72	7
TAP	64	144	0
TAP	64	144	1
TAP	64	216	4
TAP	64	288	0
TAP	64	288	5
TAP	64	336	0
TAP	64	336	5
TAP	65	0	6
TAP	65	0	7
TAP	65	72	0
TAP	65	72	1
TAP	65	144	4
TAP	65	144	5
TAP	65	216	2
TAP	65	216	3
TAP	65	288	2
TAP	65	288	5
TAP	65	336	1
TAP	65	336	6
STR	66	0	0
SXL	66	0	0	96	144	3
STR	66	0	7
SXR	66	0	7	96	144	4
BRK	66	288	1
BRK	66	288	6

T_REC_TAP	363
T_REC_BRK	19
T_REC_XTP	0
T_REC_HLD	0
T_REC_XHO	0
T_REC_STR	38
T_REC_BST	6
T_REC_XST	0
T_REC_TTP	0
T_REC_THO	0
T_REC_SLD	44
T_REC_ALL	470
T_NUM_TAP	401
T_NUM_BRK	25
T_NUM_HLD	0
T_NUM_SLD	44
T_NUM_ALL	470
T_JUDGE_TAP	426
T_JUDGE_HLD	0
T_JUDGE_SLD	44
T_JUDGE_ALL	470
TTM_EACHPAIRS	139
TTM_SCR_TAP	200500
TTM_SCR_BRK	65000
TTM_SCR_HLD	0
TTM_SCR_SLD	66000
TTM_SCR_ALL	331500
TTM_SCR_S	319150
TTM_SCR_SS	329000
TTM_RAT_ACV	10075

