VERSION	0.00.00	1.03.00
FES_MODE	0
BPM_DEF	159.000	159.000	159.000	159.000
MET_DEF	4	4
RESOLUTION	384
CLK_DEF	384
COMPATIBLE_CODE	MA2

BPM	0	0	159.000
MET	0	0	4	4

HLD	1	0	2	384
HLD	2	0	4	384
HLD	3	0	3	384
HLD	4	0	5	192
TAP	4	192	2
HLD	5	0	5	384
HLD	6	0	3	384
HLD	7	0	4	384
HLD	8	0	2	192
TAP	8	192	5
TAP	9	0	2
TAP	9	96	2
TAP	9	192	2
TAP	9	192	3
TAP	10	0	5
TAP	10	96	5
TAP	10	192	4
TAP	10	192	5
TAP	11	0	2
TAP	11	96	2
TAP	11	192	1
TAP	11	192	3
TAP	12	0	5
TAP	12	96	5
TAP	12	192	4
TAP	12	192	6
TAP	13	0	2
TAP	13	96	3
TAP	13	192	2
TAP	13	192	3
TAP	14	0	5
TAP	14	96	4
TAP	14	192	4
TAP	14	192	5
TAP	15	0	2
TAP	15	96	3
TAP	15	192	1
TAP	15	192	4
TAP	16	0	5
TAP	16	96	4
TAP	16	192	3
TAP	16	192	6
TAP	18	0	3
TAP	18	0	4
TAP	18	96	3
TAP	18	96	4
TAP	18	192	3
TAP	18	192	4
BRK	18	288	3
BRK	18	288	4
TAP	19	0	2
TAP	19	96	3
TAP	19	192	2
TAP	19	288	2
TAP	20	0	2
TAP	20	0	3
TAP	20	96	2
TAP	20	96	3
TAP	20	192	1
TAP	20	192	4
TAP	21	0	5
TAP	21	96	4
TAP	21	192	5
TAP	21	288	5
TAP	22	0	4
TAP	22	0	5
TAP	22	96	4
TAP	22	96	5
TAP	22	192	3
TAP	22	192	6
TAP	23	0	2
TAP	23	96	3
TAP	23	192	2
TAP	23	288	2
TAP	24	0	1
TAP	24	0	3
TAP	24	96	2
TAP	24	192	1
TAP	24	192	3
TAP	25	0	5
TAP	25	96	4
TAP	25	192	5
TAP	25	288	5
TAP	26	0	4
TAP	26	0	6
TAP	26	96	5
TAP	26	192	4
TAP	26	192	6
TAP	27	0	2
TAP	27	0	3
TAP	27	96	4
TAP	27	192	5
TAP	27	288	6
TAP	28	0	5
TAP	28	96	4
TAP	28	192	2
TAP	28	192	3
TAP	29	0	4
TAP	29	0	5
TAP	29	96	3
TAP	29	192	2
TAP	29	288	1
TAP	30	0	2
TAP	30	96	3
TAP	30	192	4
TAP	30	192	5
TAP	31	0	6
TAP	31	0	7
TAP	31	96	0
TAP	31	192	1
TAP	31	288	2
TAP	32	0	1
TAP	32	96	0
TAP	32	192	6
TAP	32	192	7
TAP	33	0	0
TAP	33	0	1
TAP	33	96	7
TAP	33	192	6
TAP	33	288	5
TAP	34	0	6
TAP	34	96	7
TAP	34	192	0
TAP	34	192	1
TAP	35	0	2
TAP	35	96	2
TAP	35	96	3
TAP	35	192	5
TAP	35	288	4
TAP	35	288	5
STR	36	0	1
SCR	36	0	1	96	192	4
TAP	37	0	5
TAP	37	96	4
TAP	37	96	5
TAP	37	192	2
TAP	37	288	2
TAP	37	288	3
STR	38	0	6
SCL	38	0	6	96	192	3
TAP	39	0	1
TAP	39	96	1
TAP	39	96	3
TAP	39	192	6
TAP	39	288	4
TAP	39	288	6
STR	40	0	0
SLR	40	0	0	96	192	4
TAP	41	0	6
TAP	41	96	4
TAP	41	96	6
TAP	41	192	1
TAP	41	288	1
TAP	41	288	3
STR	42	0	7
SLL	42	0	7	96	192	3
HLD	43	0	2	192
HLD	43	0	3	192
HLD	44	0	2	288
TAP	44	96	3
TAP	44	192	3
TAP	44	288	3
HLD	45	0	4	192
HLD	45	0	5	192
HLD	46	0	5	288
TAP	46	96	4
TAP	46	192	4
TAP	46	288	4
HLD	47	0	1	192
HLD	47	0	3	192
HLD	48	0	1	288
TAP	48	96	3
TAP	48	192	3
TAP	48	288	3
HLD	49	0	4	192
HLD	49	0	6	192
HLD	50	0	6	288
TAP	50	96	4
TAP	50	192	4
TAP	50	288	4
TAP	51	0	0
TAP	51	96	1
TAP	51	192	2
TAP	51	288	3
TAP	52	0	4
TAP	52	0	5
TAP	52	72	4
TAP	52	72	5
BRK	52	144	3
BRK	52	144	6
TAP	53	0	7
TAP	53	96	6
TAP	53	192	5
TAP	53	288	4
TAP	54	0	2
TAP	54	0	3
TAP	54	72	2
TAP	54	72	3
BRK	54	144	1
BRK	54	144	4
TAP	55	0	4
TAP	55	96	5
TAP	55	192	6
TAP	55	288	7
TAP	56	0	0
TAP	56	0	1
TAP	56	72	0
TAP	56	72	1
BRK	56	144	2
BRK	56	144	7
TAP	57	0	3
TAP	57	96	2
TAP	57	192	1
TAP	57	288	0
TAP	58	0	6
TAP	58	0	7
TAP	58	72	6
TAP	58	72	7
BRK	58	144	0
BRK	58	144	5
TAP	59	0	0
TAP	59	0	7
TAP	59	96	2
TAP	59	192	3
TAP	59	288	4
TAP	60	0	6
TAP	60	0	7
TAP	60	96	5
TAP	60	192	4
TAP	60	288	3
TAP	61	0	0
TAP	61	0	1
TAP	61	96	4
TAP	61	192	3
TAP	61	288	2
TAP	62	0	6
TAP	62	0	7
TAP	62	96	3
TAP	62	192	4
TAP	62	288	5
TAP	63	0	0
TAP	63	0	7
TAP	63	96	1
TAP	63	192	0
TAP	63	288	7
TAP	64	0	2
TAP	64	0	3
TAP	64	96	6
TAP	64	192	7
TAP	64	288	0
TAP	65	0	4
TAP	65	0	5
TAP	65	96	3
TAP	65	96	4
TAP	65	192	2
TAP	65	192	5
TAP	65	288	1
TAP	65	288	6
TAP	66	0	0
TAP	66	0	1
TAP	66	96	6
TAP	66	96	7
TAP	66	192	3
TAP	66	192	4
BRK	66	288	1
BRK	66	288	6

T_REC_TAP	226
T_REC_BRK	12
T_REC_XTP	0
T_REC_HLD	20
T_REC_XHO	0
T_REC_STR	4
T_REC_BST	0
T_REC_XST	0
T_REC_TTP	0
T_REC_THO	0
T_REC_SLD	4
T_REC_ALL	266
T_NUM_TAP	230
T_NUM_BRK	12
T_NUM_HLD	20
T_NUM_SLD	4
T_NUM_ALL	266
T_JUDGE_TAP	242
T_JUDGE_HLD	112
T_JUDGE_SLD	4
T_JUDGE_ALL	358
TTM_EACHPAIRS	68
TTM_SCR_TAP	115000
TTM_SCR_BRK	31200
TTM_SCR_HLD	20000
TTM_SCR_SLD	6000
TTM_SCR_ALL	172200
TTM_SCR_S	165900
TTM_SCR_SS	171000
TTM_RAT_ACV	10070

