VERSION	0.00.00	1.03.00
FES_MODE	0
BPM_DEF	159.000	159.000	159.000	159.000
MET_DEF	4	4
RESOLUTION	384
CLK_DEF	384
COMPATIBLE_CODE	MA2

BPM	0	0	159.000
MET	0	0	4	4

HLD	1	0	0	384
HLD	3	0	0	384
HLD	5	0	7	384
HLD	7	0	7	384
TAP	9	0	0
TAP	9	192	0
TAP	10	0	0
TAP	10	192	0
TAP	11	0	7
TAP	11	192	7
TAP	12	0	7
TAP	12	192	7
TAP	13	0	0
TAP	13	192	1
TAP	14	0	2
TAP	14	192	3
TAP	15	0	4
TAP	15	192	5
TAP	16	0	6
TAP	16	192	7
BRK	17	0	0
BRK	17	0	7
TAP	18	0	0
TAP	18	0	7
TAP	18	192	0
TAP	18	192	7
TAP	19	0	0
TAP	19	96	0
TAP	19	192	0
TAP	20	0	1
TAP	20	96	1
TAP	20	192	1
TAP	21	0	2
TAP	21	96	2
TAP	21	192	2
TAP	22	0	3
TAP	22	96	3
TAP	22	192	3
TAP	23	0	2
TAP	23	96	2
TAP	23	192	2
TAP	24	0	1
TAP	24	96	1
TAP	24	192	1
TAP	25	0	0
TAP	25	96	0
TAP	25	192	0
TAP	26	0	7
TAP	26	96	7
TAP	26	192	0
TAP	26	192	7
TAP	27	0	6
TAP	27	96	6
TAP	27	192	6
TAP	28	0	5
TAP	28	96	5
TAP	28	192	5
TAP	29	0	4
TAP	29	96	4
TAP	29	192	4
TAP	30	0	3
TAP	30	96	3
TAP	30	192	3
TAP	31	0	4
TAP	31	96	4
TAP	31	192	4
TAP	32	0	5
TAP	32	96	5
TAP	32	192	5
TAP	33	0	6
TAP	33	96	6
TAP	33	192	6
TAP	34	0	7
TAP	34	96	7
TAP	34	192	7
STR	35	0	0
SI_	35	0	0	96	288	5
STR	37	0	7
SI_	37	0	7	96	288	2
STR	39	0	0
SI_	39	0	0	96	288	5
STR	41	0	7
SI_	41	0	7	96	288	2
TAP	43	0	0
TAP	44	0	0
TAP	45	0	0
TAP	46	0	0
TAP	47	0	7
TAP	47	192	7
TAP	48	0	7
TAP	48	192	7
TAP	49	0	0
TAP	49	192	0
TAP	50	0	0
TAP	50	192	0
TAP	51	0	7
TAP	51	96	7
TAP	51	192	7
TAP	52	0	6
TAP	52	96	6
TAP	52	192	6
TAP	52	192	7
TAP	53	0	5
TAP	53	96	5
TAP	53	192	5
TAP	54	0	4
TAP	54	96	4
TAP	54	192	3
TAP	54	192	4
TAP	55	0	3
TAP	55	96	3
TAP	55	192	3
TAP	56	0	2
TAP	56	96	2
TAP	56	192	2
TAP	56	192	3
TAP	57	0	1
TAP	57	96	1
TAP	57	192	1
TAP	58	0	0
TAP	58	96	0
TAP	58	192	0
TAP	58	192	7
TAP	59	0	0
TAP	59	96	0
TAP	59	192	0
TAP	59	288	0
TAP	60	0	1
TAP	60	96	1
TAP	60	192	1
TAP	60	288	1
TAP	61	0	2
TAP	61	96	2
TAP	61	192	2
TAP	61	288	2
TAP	62	0	3
TAP	62	96	3
TAP	62	192	3
TAP	62	288	3
TAP	63	0	4
TAP	63	96	4
TAP	63	192	4
TAP	63	288	4
TAP	64	0	5
TAP	64	96	5
TAP	64	192	5
TAP	64	288	5
TAP	65	0	6
TAP	65	96	6
TAP	65	192	6
TAP	65	288	6
HLD	66	0	0	288
HLD	66	0	7	288

T_REC_TAP	137
T_REC_BRK	2
T_REC_XTP	0
T_REC_HLD	6
T_REC_XHO	0
T_REC_STR	4
T_REC_BST	0
T_REC_XST	0
T_REC_TTP	0
T_REC_THO	0
T_REC_SLD	4
T_REC_ALL	153
T_NUM_TAP	141
T_NUM_BRK	2
T_NUM_HLD	6
T_NUM_SLD	4
T_NUM_ALL	153
T_JUDGE_TAP	143
T_JUDGE_HLD	44
T_JUDGE_SLD	4
T_JUDGE_ALL	191
TTM_EACHPAIRS	9
TTM_SCR_TAP	70500
TTM_SCR_BRK	5200
TTM_SCR_HLD	6000
TTM_SCR_SLD	6000
TTM_SCR_ALL	87700
TTM_SCR_S	84900
TTM_SCR_SS	87500
TTM_RAT_ACV	10022

