VERSION	0.00.00	1.03.00
FES_MODE	0
BPM_DEF	156.000	156.000	156.000	156.000
MET_DEF	4	4
RESOLUTION	384
CLK_DEF	384
COMPATIBLE_CODE	MA2

BPM	0	0	156.000
MET	0	0	4	4

HLD	2	0	4	72
HLD	2	72	3	72
HLD	2	144	2	96
TAP	2	240	1
TAP	2	288	3
TAP	2	288	4
TAP	3	0	5
TAP	3	48	4
TAP	3	96	3
TAP	3	96	6
TAP	3	192	1
TAP	3	192	4
TAP	3	240	0
TAP	3	264	7
TAP	3	288	1
TAP	3	312	6
TAP	3	336	2
TAP	3	360	5
HLD	4	0	3	72
HLD	4	72	4	72
HLD	4	144	5	96
TAP	4	240	6
TAP	4	288	3
TAP	4	288	4
TAP	5	0	2
TAP	5	24	3
TAP	5	48	2
TAP	5	72	3
TAP	5	96	2
TAP	5	144	5
TAP	5	168	4
TAP	5	192	5
TAP	5	216	4
TAP	5	240	5
TAP	5	288	1
TAP	5	288	6
HLD	6	0	7	72
HLD	6	72	0	72
HLD	6	144	1	96
TAP	6	240	2
TAP	6	288	3
TAP	6	288	4
TAP	7	0	5
TAP	7	48	4
TAP	7	48	6
TAP	7	96	2
TAP	7	144	1
TAP	7	144	3
TAP	7	240	3
TAP	7	240	4
TAP	7	288	2
TAP	7	312	5
TAP	7	336	1
TAP	7	360	6
HLD	8	0	0	72
HLD	8	72	7	72
HLD	8	144	6	96
TAP	8	240	5
TAP	8	288	3
TAP	8	288	4
TAP	8	336	1
TAP	8	336	6
TAP	9	240	0
TAP	9	240	7
TAP	9	288	3
TAP	9	288	4
TAP	10	0	0
TAP	10	48	1
TAP	10	96	2
TAP	10	120	3
TAP	10	144	2
TAP	10	168	3
TAP	10	216	4
TAP	10	264	5
TAP	10	312	6
TAP	10	336	6
TAP	11	0	7
TAP	11	48	6
TAP	11	96	5
TAP	11	120	4
TAP	11	144	5
TAP	11	168	4
TAP	11	216	3
TAP	11	264	2
TAP	11	312	1
TAP	11	336	1
TAP	12	0	4
TAP	12	48	5
TAP	12	96	6
TAP	12	120	7
TAP	12	144	6
TAP	12	168	7
TAP	12	216	0
TAP	12	264	1
TAP	12	312	2
TAP	12	336	2
TAP	13	0	3
TAP	13	48	2
TAP	13	96	1
TAP	13	120	0
TAP	13	144	1
TAP	13	168	0
TAP	13	216	7
TAP	13	264	6
TAP	13	312	5
TAP	13	336	5
STR	14	0	3
SXR	14	0	3	96	192	0
STR	14	0	4
SXL	14	0	4	96	192	7
TAP	15	0	1
TAP	15	0	6
TAP	15	72	2
TAP	15	72	7
BRK	15	144	0
TAP	15	144	5
HLD	16	0	3	288
TAP	16	0	7
TAP	16	96	6
TAP	16	192	5
TAP	16	288	4
TAP	16	336	2
TAP	16	336	5
TAP	17	48	0
TAP	17	48	1
TAP	17	96	2
TAP	17	96	7
TAP	17	192	6
TAP	17	240	7
TAP	17	288	0
STR	17	288	5
SCL	17	288	5	96	48	2
STR	18	0	2
SCR	18	0	2	96	48	5
TAP	18	192	2
TAP	18	192	6
TAP	18	240	1
TAP	18	240	5
TAP	18	288	0
TAP	18	288	4
STR	18	336	3
SCR	18	336	3	96	48	6
STR	18	336	7
SCR	18	336	7	96	48	2
TAP	19	144	0
TAP	19	144	4
TAP	19	240	7
TAP	19	288	6
TAP	19	336	5
TAP	20	0	0
HLD	20	0	4	288
TAP	20	96	1
TAP	20	192	2
TAP	20	288	3
TAP	20	336	2
TAP	20	336	5
TAP	21	48	6
TAP	21	48	7
TAP	21	96	0
TAP	21	96	5
TAP	21	192	1
TAP	21	240	0
STR	21	288	2
SCR	21	288	2	96	48	5
TAP	21	288	7
STR	22	0	5
SCL	22	0	5	96	48	2
TAP	22	192	7
TAP	22	240	2
TAP	22	240	3
TAP	22	288	0
TAP	22	336	4
TAP	22	336	5
HLD	23	144	4	96
TAP	23	240	3
TAP	23	288	1
TAP	23	288	6
HLD	24	0	0	288
TAP	24	0	4
TAP	24	96	5
TAP	24	192	6
TAP	24	288	7
TAP	24	336	1
TAP	24	336	6
TAP	25	48	2
TAP	25	48	3
TAP	25	96	1
TAP	25	96	4
TAP	25	192	5
TAP	25	240	4
TAP	25	288	3
STR	25	288	6
SCR	25	288	6	96	48	1
STR	26	0	1
SCL	26	0	1	96	48	6
TAP	26	192	1
TAP	26	192	5
TAP	26	240	2
TAP	26	240	6
TAP	26	288	3
TAP	26	288	7
STR	26	336	0
SCL	26	336	0	96	48	5
STR	26	336	4
SCL	26	336	4	96	48	1
TAP	27	144	3
TAP	27	144	7
TAP	27	240	4
TAP	27	288	5
TAP	27	336	6
TAP	28	0	3
HLD	28	0	7	288
TAP	28	96	2
TAP	28	192	1
TAP	28	288	0
TAP	28	336	1
TAP	28	336	6
TAP	29	48	4
TAP	29	48	5
TAP	29	96	3
TAP	29	96	6
TAP	29	192	2
TAP	29	240	3
STR	29	288	1
SCL	29	288	1	96	48	6
TAP	29	288	4
STR	30	0	6
SCR	30	0	6	96	48	1
TAP	30	192	2
TAP	30	192	3
TAP	30	240	4
TAP	30	240	5
TAP	30	288	3
TAP	30	312	4
TAP	30	336	3
TAP	30	360	4
TAP	31	48	2
TAP	31	48	5
TAP	31	120	1
TAP	31	120	6
STR	31	192	0
SXL	31	192	0	96	48	2
STR	31	192	7
SXR	31	192	7	96	48	5
TAP	31	288	0
TAP	31	288	7
HLD	32	0	3	96
TAP	32	96	2
TAP	32	192	1
TAP	32	240	0
TAP	32	288	7
STR	32	336	6
SCL	32	336	6	96	96	3
STR	33	48	3
SCL	33	48	3	96	96	0
STR	33	144	0
SCL	33	144	0	96	96	5
TAP	33	240	2
TAP	33	288	2
HLD	34	0	4	96
TAP	34	96	5
TAP	34	192	6
TAP	34	240	7
TAP	34	288	0
STR	34	336	1
SXL	34	336	1	96	144	4
TAP	35	48	5
TAP	35	96	6
STR	35	144	7
SI_	35	144	7	96	48	3
TAP	35	240	0
TAP	35	288	0
TAP	36	0	1
STR	36	48	1
SCL	36	48	1	96	96	6
STR	36	144	6
SCL	36	144	6	96	96	3
STR	36	240	3
SCL	36	240	3	96	96	0
STR	36	336	0
SCL	36	336	0	96	96	5
STR	37	48	5
SCL	37	48	5	96	96	2
STR	37	144	2
SCL	37	144	2	96	96	7
STR	37	240	7
SCL	37	240	7	96	96	4
TAP	37	336	3
TAP	38	0	3
STR	38	96	0
SI_	38	96	0	96	48	2
STR	38	144	7
SI_	38	144	7	96	48	3
STR	38	192	0
SI_	38	192	0	96	48	4
STR	38	240	7
SI_	38	240	7	96	48	5
TAP	38	288	0
TAP	38	336	7
TAP	39	48	2
STR	39	96	3
SI_	39	96	3	96	48	7
TAP	39	144	4
TAP	39	336	2
HLD	40	0	2	72
HLD	40	72	1	72
STR	40	144	0
SCL	40	144	0	96	48	5
SCR	40	144	0	96	48	3
TAP	40	192	4
TAP	40	336	4
HLD	41	0	4	72
HLD	41	72	5	72
TAP	41	144	6
TAP	41	192	0
TAP	41	192	7
TAP	41	240	1
TAP	41	240	6
TAP	41	288	2
TAP	41	288	5
TAP	42	0	2
TAP	42	48	1
TAP	42	48	3
TAP	42	96	5
TAP	42	144	4
TAP	42	144	6
TAP	42	192	3
TAP	42	192	7
STR	42	264	0
SLR	42	264	0	96	96	4
STR	42	264	4
SLR	42	264	4	96	96	0
TAP	43	144	3
TAP	43	144	7
TAP	43	192	0
TAP	43	192	4
TAP	43	264	1
TAP	43	264	6
TAP	43	336	5
HLD	44	0	5	72
HLD	44	72	6	72
STR	44	144	7
SCL	44	144	7	96	48	4
SCR	44	144	7	96	48	2
TAP	44	192	3
TAP	44	336	3
HLD	45	0	3	72
HLD	45	72	2	72
TAP	45	144	1
TAP	45	192	0
TAP	45	192	7
TAP	45	240	1
TAP	45	240	6
TAP	45	288	2
TAP	45	288	5
TAP	46	0	6
TAP	46	48	5
TAP	46	48	7
TAP	46	96	1
TAP	46	144	0
TAP	46	144	2
TAP	46	192	3
TAP	46	192	4
STR	46	264	0
SXL	46	264	0	96	120	3
STR	46	264	7
SXR	46	264	7	96	120	4
TAP	47	192	1
TAP	47	224	3
TAP	47	256	2
TAP	47	288	6
TAP	47	320	4
TAP	47	352	5
STR	48	0	3
SCL	48	0	3	96	576	4
SUR	48	0	3	96	576	4
TAP	50	0	3
TAP	50	96	2
TAP	50	192	1
TAP	50	288	0
TAP	50	288	7
TAP	50	336	1
TAP	50	336	6
TAP	51	48	3
TAP	51	48	4
STR	51	96	2
SLL	51	96	2	96	144	6
STR	51	96	5
SV_	51	96	5	96	144	3
TAP	52	0	4
TAP	52	96	5
TAP	52	192	6
TAP	52	288	0
TAP	52	288	7
TAP	52	336	1
TAP	52	336	6
TAP	53	48	3
TAP	53	48	4
STR	53	96	2
SV_	53	96	2	96	144	4
STR	53	96	5
SLR	53	96	5	96	144	1
TAP	54	0	3
TAP	54	96	2
TAP	54	192	1
TAP	54	288	0
TAP	54	288	7
TAP	54	336	1
TAP	54	336	6
TAP	55	48	3
TAP	55	48	4
TAP	55	96	2
TAP	55	96	5
TAP	55	144	2
TAP	55	144	5
TAP	55	192	1
TAP	55	192	6
TAP	55	240	1
TAP	55	240	6
TAP	55	288	0
TAP	55	288	7
TAP	55	336	0
TAP	55	336	7
STR	56	0	1
SXR	56	0	1	96	240	4
TAP	56	144	4
TAP	56	240	5
HLD	56	336	6	96
HLD	57	48	5	96
HLD	57	144	4	96
TAP	57	240	3
STR	58	0	6
SXL	58	0	6	96	240	3
TAP	58	144	3
TAP	58	240	2
HLD	58	336	1	96
TAP	59	48	3
HLD	59	144	6	96
TAP	59	240	5
TAP	59	288	4
TAP	60	0	5
HLD	60	48	5	96
HLD	60	144	6	96
HLD	60	240	7	96
HLD	60	336	0	96
HLD	61	48	1	96
HLD	61	144	2	96
HLD	61	240	3	96
TAP	61	336	4
TAP	62	0	1
TAP	62	0	6
STR	62	96	7
SI_	62	96	7	96	48	5
STR	62	144	0
SI_	62	144	0	96	48	4
STR	62	192	7
SI_	62	192	7	96	48	3
STR	62	240	0
SI_	62	240	0	96	48	2
TAP	62	288	7
TAP	62	336	0
TAP	63	48	5
STR	63	96	4
SI_	63	96	4	96	48	0
TAP	63	144	3
STR	64	0	7
SF_	64	0	7	96	72	3
TAP	64	192	1
TAP	64	192	5
STR	64	264	2
SXR	64	264	2	96	168	6
STR	64	264	6
SXR	64	264	6	96	168	2
BRK	65	192	0
BRK	65	192	4
BRK	65	240	2
BRK	65	240	6
TAP	66	0	1
TAP	66	48	0
TAP	66	48	2
TAP	66	96	6
TAP	66	144	5
TAP	66	144	7
TAP	66	192	3
TAP	66	192	4
STR	66	264	0
SXL	66	264	0	96	120	3
STR	66	264	7
SXR	66	264	7	96	120	4
STR	67	144	1
SXL	67	144	1	96	72	3
STR	67	144	5
SXL	67	144	5	96	72	7
TAP	67	192	3
TAP	67	192	7
TAP	67	336	5
HLD	68	0	5	72
HLD	68	72	3	72
STR	68	144	7
SCL	68	144	7	96	48	4
SCR	68	144	7	96	48	2
TAP	68	192	2
TAP	68	192	4
TAP	68	336	3
HLD	69	0	3	72
HLD	69	72	2	72
TAP	69	144	1
TAP	69	192	0
TAP	69	192	7
TAP	69	240	1
TAP	69	240	6
TAP	69	288	3
TAP	69	288	4
TAP	70	0	6
TAP	70	48	5
TAP	70	48	7
TAP	70	96	1
TAP	70	144	0
TAP	70	144	2
TAP	70	192	1
TAP	70	192	6
STR	70	264	3
SXR	70	264	3	96	120	0
STR	70	264	4
SXL	70	264	4	96	120	7
TAP	71	192	0
TAP	71	216	7
TAP	71	240	0
TAP	71	264	7
STR	71	288	1
SLR	71	288	1	96	120	7
STR	71	288	6
SLL	71	288	6	96	120	0
TAP	72	0	1
TAP	72	0	6
TAP	72	192	1
TAP	72	192	6
STR	72	264	3
SCL	72	264	3	96	168	4
STR	72	264	4
SCR	72	264	4	96	168	3
TAP	72	336	3
TAP	72	336	4
TAP	73	192	3
TAP	73	192	4
BRK	73	240	0
BRK	73	240	7
TAP	74	0	6
TAP	74	48	5
TAP	74	48	7
TAP	74	96	1
TAP	74	144	0
TAP	74	144	2
TAP	74	192	3
TAP	74	192	7
STR	74	264	0
SXL	74	264	0	96	120	3
STR	74	264	4
SXL	74	264	4	96	120	7
STR	75	144	2
SXR	75	144	2	96	72	0
STR	75	144	6
SXR	75	144	6	96	72	4
TAP	75	192	0
TAP	75	192	4
TAP	75	336	2
HLD	76	0	2	72
HLD	76	72	4	72
STR	76	144	0
SCL	76	144	0	96	48	5
SCR	76	144	0	96	48	3
TAP	76	192	3
TAP	76	192	5
TAP	76	336	4
HLD	77	0	4	72
HLD	77	72	5	72
TAP	77	144	6
TAP	77	192	0
TAP	77	192	7
TAP	77	240	1
TAP	77	240	6
TAP	77	288	3
TAP	77	288	4
TAP	78	0	1
TAP	78	48	0
TAP	78	48	2
TAP	78	96	6
TAP	78	144	5
TAP	78	144	7
TAP	78	192	0
TAP	78	192	4
STR	78	264	3
SXR	78	264	3	96	120	0
STR	78	264	7
SXR	78	264	7	96	120	4
TAP	79	192	0
TAP	79	192	4
TAP	79	240	1
TAP	79	240	5
STR	79	288	2
SXL	79	288	2	96	192	5
STR	79	288	6
SXL	79	288	6	96	192	1
TAP	80	288	2
HLD	80	336	2	96
HLD	81	48	3	96
HLD	81	144	4	96
TAP	81	240	5
TAP	81	288	5
TAP	82	0	3
TAP	82	0	6
TAP	82	72	1
TAP	82	72	4
TAP	82	144	0
TAP	82	144	7
TAP	82	240	3
TAP	82	240	4
TAP	82	288	1
TAP	82	288	6
TAP	83	0	0
TAP	83	0	2
TAP	83	72	5
TAP	83	72	7
TAP	83	144	3
TAP	83	144	4
TAP	83	240	0
TAP	83	240	7
TAP	83	288	1
TAP	83	288	6
TAP	84	0	3
TAP	84	48	2
TAP	84	96	1
TAP	84	120	0
TAP	84	144	1
TAP	84	168	0
TAP	84	216	7
TAP	84	264	6
TAP	84	312	5
TAP	84	336	5
TAP	85	0	4
TAP	85	48	5
TAP	85	96	6
TAP	85	120	7
TAP	85	144	6
TAP	85	168	7
TAP	85	216	0
TAP	85	264	1
TAP	85	312	2
TAP	85	336	2
TAP	86	0	3
TAP	86	48	4
TAP	86	96	5
TAP	86	120	3
TAP	86	144	4
TAP	86	168	2
TAP	86	216	1
TAP	86	264	0
TAP	86	312	7
TAP	86	336	7
TAP	87	0	0
TAP	87	0	1
TAP	87	48	6
TAP	87	48	7
TAP	87	96	0
TAP	87	120	7
TAP	87	144	0
TAP	87	168	1
TAP	87	168	6

T_REC_TAP	458
T_REC_BRK	7
T_REC_XTP	0
T_REC_HLD	50
T_REC_XHO	0
T_REC_STR	74
T_REC_BST	0
T_REC_XST	0
T_REC_TTP	0
T_REC_THO	0
T_REC_SLD	79
T_REC_ALL	668
T_NUM_TAP	532
T_NUM_BRK	7
T_NUM_HLD	50
T_NUM_SLD	79
T_NUM_ALL	668
T_JUDGE_TAP	539
T_JUDGE_HLD	116
T_JUDGE_SLD	79
T_JUDGE_ALL	734
TTM_EACHPAIRS	146
TTM_SCR_TAP	266000
TTM_SCR_BRK	18200
TTM_SCR_HLD	50000
TTM_SCR_SLD	118500
TTM_SCR_ALL	452700
TTM_SCR_S	438450
TTM_SCR_SS	452000
TTM_RAT_ACV	10015

