VERSION	0.00.00	1.03.00
FES_MODE	0
BPM_DEF	156.000	156.000	156.000	156.000
MET_DEF	4	4
RESOLUTION	384
CLK_DEF	384
COMPATIBLE_CODE	MA2

BPM	0	0	156.000
MET	0	0	4	4

TAP	2	0	1
TAP	2	0	6
TAP	2	72	3
TAP	2	72	4
HLD	2	144	2	144
HLD	2	144	5	144
TAP	3	0	2
TAP	3	48	3
TAP	3	96	2
TAP	3	192	5
TAP	3	240	4
TAP	3	288	5
TAP	4	0	0
TAP	4	0	7
TAP	4	72	2
TAP	4	72	5
HLD	4	144	1	144
HLD	4	144	6	144
TAP	5	0	1
TAP	5	48	0
TAP	5	96	1
TAP	5	192	6
TAP	5	240	7
TAP	5	288	6
TAP	6	0	0
TAP	6	0	7
TAP	6	72	3
TAP	6	72	4
HLD	6	144	1	144
HLD	6	144	6	144
TAP	7	0	1
TAP	7	48	3
TAP	7	96	2
TAP	7	192	6
TAP	7	240	4
TAP	7	288	5
TAP	8	0	3
TAP	8	0	4
TAP	8	72	0
TAP	8	72	7
HLD	8	144	2	192
HLD	8	144	5	192
TAP	9	288	1
TAP	9	288	6
TAP	10	0	0
TAP	10	48	1
TAP	10	96	2
TAP	10	192	7
TAP	10	240	6
TAP	10	288	5
TAP	11	0	1
TAP	11	48	2
TAP	11	96	3
TAP	11	192	6
TAP	11	240	5
TAP	11	288	4
TAP	12	0	2
TAP	12	48	3
TAP	12	96	4
TAP	12	192	5
TAP	12	240	4
TAP	12	288	3
TAP	13	0	1
TAP	13	48	2
TAP	13	96	3
TAP	13	192	6
TAP	13	240	5
STR	13	288	4
SCL	13	288	4	96	288	7
TAP	15	0	0
TAP	15	0	7
TAP	15	72	3
TAP	15	72	4
TAP	15	144	1
TAP	15	144	6
STR	16	0	2
SLL	16	0	2	96	192	5
TAP	17	0	6
TAP	17	48	5
TAP	17	96	4
TAP	17	192	1
TAP	17	240	2
TAP	17	288	3
TAP	18	0	4
TAP	18	0	5
TAP	18	96	2
TAP	18	96	3
TAP	18	192	7
TAP	18	240	0
TAP	18	288	7
TAP	19	0	4
TAP	19	0	5
TAP	19	96	2
TAP	19	96	3
TAP	19	192	6
TAP	19	240	1
TAP	19	288	6
TAP	20	0	2
STR	20	0	5
SLR	20	0	5	96	192	2
TAP	21	0	1
TAP	21	48	2
TAP	21	96	3
TAP	21	192	6
TAP	21	240	5
TAP	21	288	4
TAP	22	0	2
TAP	22	0	3
TAP	22	96	4
TAP	22	96	5
TAP	22	192	0
TAP	22	240	7
TAP	22	288	0
HLD	22	336	7	192
TAP	23	144	0
TAP	23	240	0
TAP	23	240	7
STR	23	288	0
SCR	23	288	0	96	96	3
STR	23	288	7
SCL	23	288	7	96	96	4
TAP	24	288	3
TAP	24	336	3
TAP	25	48	4
TAP	25	96	4
TAP	25	192	3
TAP	25	240	4
TAP	25	288	3
TAP	26	0	4
TAP	26	0	5
TAP	26	96	2
TAP	26	96	3
TAP	26	192	1
TAP	26	192	6
TAP	26	288	7
HLD	26	336	7	192
HLD	27	144	0	96
TAP	27	240	7
TAP	27	288	7
TAP	28	0	2
STR	28	0	5
SXL	28	0	5	96	192	3
TAP	29	0	3
TAP	29	48	3
TAP	29	96	4
TAP	29	144	4
TAP	29	192	3
TAP	29	288	3
TAP	29	288	4
TAP	30	0	2
TAP	30	0	5
TAP	30	96	1
TAP	30	96	6
TAP	30	192	0
TAP	30	240	7
TAP	30	288	0
STR	30	336	7
SCL	30	336	7	96	240	0
TAP	32	0	0
TAP	32	0	1
TAP	32	48	0
TAP	32	48	1
HLD	32	144	1	96
HLD	32	240	2	96
HLD	32	336	3	96
HLD	33	48	4	96
HLD	33	144	5	96
TAP	33	240	6
TAP	34	0	6
TAP	34	0	7
TAP	34	48	6
TAP	34	48	7
HLD	34	144	6	96
HLD	34	240	5	96
HLD	34	336	4	96
HLD	35	48	3	96
HLD	35	144	2	96
TAP	35	240	1
TAP	35	288	1
TAP	36	0	0
TAP	36	0	1
TAP	36	48	0
TAP	36	48	1
HLD	36	144	1	96
HLD	36	240	3	96
HLD	36	336	4	96
HLD	37	48	6	96
STR	37	144	7
SUR	37	144	7	96	144	0
TAP	38	192	0
TAP	38	192	7
STR	38	240	0
SXL	38	240	0	96	240	3
STR	38	240	7
SXR	38	240	7	96	240	4
TAP	40	0	0
TAP	40	0	7
TAP	40	72	1
TAP	40	72	6
TAP	40	144	2
TAP	40	144	5
TAP	40	192	0
TAP	40	192	7
TAP	40	264	0
TAP	40	264	7
TAP	41	0	1
TAP	41	0	6
TAP	41	72	2
TAP	41	72	5
STR	41	144	3
SI_	41	144	3	96	48	1
STR	41	144	4
SI_	41	144	4	96	48	6
TAP	42	0	0
TAP	42	48	7
TAP	42	96	1
TAP	42	192	7
TAP	42	240	0
TAP	42	288	6
TAP	43	0	0
TAP	43	0	1
TAP	43	96	6
TAP	43	96	7
TAP	43	192	2
TAP	43	192	3
TAP	43	288	4
TAP	43	288	5
TAP	44	0	0
TAP	44	0	7
TAP	44	72	1
TAP	44	72	6
TAP	44	144	2
TAP	44	144	5
TAP	44	192	0
TAP	44	192	7
TAP	44	264	0
TAP	44	264	7
TAP	45	0	1
TAP	45	0	6
TAP	45	72	2
TAP	45	72	5
STR	45	144	3
SI_	45	144	3	96	48	0
STR	45	144	4
SI_	45	144	4	96	48	7
TAP	46	0	7
TAP	46	48	0
TAP	46	96	5
TAP	46	192	0
TAP	46	240	7
TAP	46	288	2
TAP	47	0	5
TAP	47	0	7
TAP	47	96	0
TAP	47	96	2
TAP	47	192	4
TAP	47	192	6
STR	47	288	1
SXR	47	288	1	96	192	7
STR	47	288	3
SCR	47	288	3	96	192	6
TAP	49	0	6
TAP	49	0	7
TAP	49	96	5
TAP	49	96	7
TAP	49	192	0
TAP	49	192	1
STR	49	288	0
SCL	49	288	0	96	192	5
STR	49	288	2
SXL	49	288	2	96	192	4
TAP	51	0	4
TAP	51	0	5
TAP	51	96	4
TAP	51	96	6
TAP	51	192	2
TAP	51	192	3
STR	51	288	1
SXR	51	288	1	96	192	7
STR	51	288	3
SCR	51	288	3	96	192	6
TAP	53	0	6
TAP	53	0	7
TAP	53	96	5
TAP	53	96	7
TAP	53	192	0
TAP	53	192	1
STR	53	288	0
SLL	53	288	0	96	192	4
STR	53	288	2
SV_	53	288	2	96	192	3
TAP	55	0	0
TAP	55	0	7
TAP	55	96	0
TAP	55	96	7
TAP	55	192	6
TAP	55	240	6
TAP	55	288	1
TAP	55	336	1
TAP	56	0	5
STR	56	48	5
SI_	56	48	5	96	96	0
TAP	57	0	4
STR	57	48	4
SI_	57	48	4	96	96	1
TAP	58	0	3
STR	58	48	3
SI_	58	48	3	96	96	6
TAP	59	0	2
STR	59	48	2
SI_	59	48	2	96	96	7
TAP	60	0	4
TAP	60	0	5
STR	60	48	4
SI_	60	48	4	96	96	1
STR	60	48	5
SI_	60	48	5	96	96	0
TAP	61	0	2
TAP	61	0	3
STR	61	48	2
SI_	61	48	2	96	96	7
STR	61	48	3
SI_	61	48	3	96	96	6
TAP	62	0	6
TAP	62	0	7
TAP	62	96	0
TAP	62	96	1
TAP	62	192	0
TAP	62	192	7
STR	62	240	0
SXL	62	240	0	96	240	3
STR	62	240	7
SXR	62	240	7	96	240	4
TAP	64	0	0
TAP	64	0	7
TAP	64	72	1
TAP	64	72	6
TAP	64	144	2
TAP	64	144	5
TAP	64	192	0
TAP	64	192	6
TAP	64	264	0
TAP	64	264	6
TAP	65	0	1
TAP	65	0	6
TAP	65	72	2
TAP	65	72	5
TAP	65	144	3
TAP	65	144	4
TAP	65	192	1
TAP	65	192	7
BRK	65	240	1
BRK	65	240	7
TAP	66	0	1
TAP	66	48	0
TAP	66	96	2
TAP	66	192	6
TAP	66	240	7
TAP	66	288	5
TAP	67	0	2
TAP	67	0	3
TAP	67	96	0
TAP	67	96	2
TAP	67	192	4
TAP	67	192	5
TAP	67	288	5
TAP	67	288	7
TAP	68	0	0
TAP	68	0	7
TAP	68	72	1
TAP	68	72	6
TAP	68	144	2
TAP	68	144	5
TAP	68	192	0
TAP	68	192	7
TAP	68	264	0
TAP	68	264	7
TAP	69	0	1
TAP	69	0	6
TAP	69	72	2
TAP	69	72	5
STR	69	144	3
SCL	69	144	3	96	48	0
STR	69	144	4
SCR	69	144	4	96	48	7
TAP	70	0	6
TAP	70	48	7
TAP	70	96	5
TAP	70	192	1
TAP	70	240	0
TAP	70	288	2
TAP	71	0	4
TAP	71	0	5
TAP	71	96	5
TAP	71	96	7
TAP	71	192	2
TAP	71	192	3
TAP	71	288	0
TAP	71	288	2
TAP	72	0	6
TAP	72	0	7
TAP	72	72	0
TAP	72	72	5
TAP	72	144	1
TAP	72	144	4
BRK	72	192	6
BRK	72	192	7
BRK	72	264	6
BRK	72	264	7
TAP	73	0	0
TAP	73	0	1
TAP	73	72	2
TAP	73	72	7
TAP	73	144	3
TAP	73	144	6
TAP	73	192	0
TAP	73	192	1
BRK	73	240	0
BRK	73	240	1
TAP	74	0	1
TAP	74	48	0
TAP	74	96	2
TAP	74	96	7
TAP	74	192	6
TAP	74	240	7
TAP	74	288	0
TAP	74	288	5
TAP	75	0	2
TAP	75	0	3
TAP	75	96	2
TAP	75	96	7
TAP	75	192	4
TAP	75	192	5
TAP	75	288	0
TAP	75	288	5
TAP	76	0	6
TAP	76	0	7
TAP	76	72	0
TAP	76	72	5
TAP	76	144	1
TAP	76	144	4
TAP	76	192	6
TAP	76	192	7
TAP	76	264	6
TAP	76	264	7
TAP	77	0	0
TAP	77	0	1
TAP	77	72	2
TAP	77	72	7
STR	77	144	3
SCL	77	144	3	96	48	1
STR	77	144	6
SCR	77	144	6	96	48	0
TAP	78	0	1
TAP	78	48	0
TAP	78	96	2
TAP	78	96	7
TAP	78	192	6
TAP	78	240	7
TAP	78	288	0
TAP	78	288	5
TAP	79	0	2
TAP	79	0	3
TAP	79	96	2
TAP	79	96	7
TAP	79	192	4
TAP	79	192	5
STR	79	288	0
SV_	79	288	0	96	192	3
STR	79	288	5
SV_	79	288	5	96	192	3
TAP	80	288	2
TAP	80	336	1
TAP	80	336	3
TAP	81	48	5
TAP	81	96	4
TAP	81	96	6
TAP	81	192	1
TAP	81	192	3
TAP	81	288	4
TAP	81	288	6
TAP	82	0	1
TAP	82	0	5
TAP	82	72	0
TAP	82	72	6
STR	82	144	7
SXL	82	144	7	96	48	1
SXR	82	144	7	96	48	5
TAP	83	0	1
TAP	83	0	5
TAP	83	72	2
TAP	83	72	4
STR	83	144	3
SXL	83	144	3	96	48	5
SXR	83	144	3	96	48	1
TAP	84	0	0
TAP	84	48	7
TAP	84	96	6
TAP	84	192	7
TAP	84	240	0
TAP	84	288	1
TAP	85	0	7
TAP	85	48	6
TAP	85	96	5
TAP	85	192	0
TAP	85	240	1
TAP	85	288	2
TAP	86	0	6
TAP	86	48	5
TAP	86	96	4
TAP	86	192	1
TAP	86	240	2
TAP	86	288	3
TAP	87	0	5
TAP	87	48	4
TAP	87	96	3
BRK	87	144	2

T_REC_TAP	401
T_REC_BRK	9
T_REC_XTP	0
T_REC_HLD	25
T_REC_XHO	0
T_REC_STR	40
T_REC_BST	0
T_REC_XST	0
T_REC_TTP	0
T_REC_THO	0
T_REC_SLD	42
T_REC_ALL	517
T_NUM_TAP	441
T_NUM_BRK	9
T_NUM_HLD	25
T_NUM_SLD	42
T_NUM_ALL	517
T_JUDGE_TAP	450
T_JUDGE_HLD	64
T_JUDGE_SLD	42
T_JUDGE_ALL	556
TTM_EACHPAIRS	150
TTM_SCR_TAP	220500
TTM_SCR_BRK	23400
TTM_SCR_HLD	25000
TTM_SCR_SLD	63000
TTM_SCR_ALL	331900
TTM_SCR_S	321100
TTM_SCR_SS	331000
TTM_RAT_ACV	10027

