VERSION	0.00.00	1.03.00
FES_MODE	0
BPM_DEF	156.000	156.000	156.000	156.000
MET_DEF	4	4
RESOLUTION	384
CLK_DEF	384
COMPATIBLE_CODE	MA2

BPM	0	0	156.000
MET	0	0	4	4

TAP	2	0	2
TAP	2	96	2
TAP	2	192	3
TAP	2	288	3
HLD	3	0	2	192
TAP	3	192	3
TAP	4	0	5
TAP	4	96	5
TAP	4	192	4
TAP	4	288	4
HLD	5	0	5	192
TAP	5	192	4
TAP	6	0	3
TAP	6	96	4
TAP	6	192	3
TAP	6	288	4
HLD	7	0	3	192
HLD	7	0	4	192
TAP	8	0	0
TAP	8	0	1
TAP	8	192	6
TAP	8	192	7
BRK	9	0	0
BRK	9	0	7
TAP	10	0	2
TAP	10	96	3
TAP	10	192	2
TAP	10	288	2
TAP	11	0	5
TAP	11	96	4
TAP	11	192	5
TAP	11	288	5
TAP	12	0	1
TAP	12	96	0
TAP	12	192	1
TAP	12	288	1
TAP	13	0	6
TAP	13	96	7
TAP	13	192	6
TAP	13	288	6
STR	14	0	0
SCR	14	0	0	96	288	3
STR	14	0	7
SCL	14	0	7	96	288	4
TAP	16	0	2
TAP	16	96	3
TAP	16	192	2
TAP	16	288	3
TAP	17	0	2
TAP	17	96	3
TAP	17	192	4
TAP	18	0	5
TAP	18	96	4
TAP	18	192	5
TAP	18	288	4
TAP	19	0	5
TAP	19	96	4
TAP	19	192	3
TAP	20	0	2
TAP	20	96	3
TAP	20	192	4
TAP	20	288	5
TAP	21	0	6
TAP	21	96	5
TAP	21	192	4
TAP	21	288	3
STR	22	0	2
SCL	22	0	2	96	480	5
TAP	24	0	5
TAP	24	96	4
TAP	24	192	5
TAP	24	288	4
TAP	25	0	4
TAP	25	0	5
TAP	25	96	4
TAP	25	96	5
TAP	25	192	3
TAP	25	192	6
TAP	26	0	2
TAP	26	96	3
TAP	26	192	2
TAP	26	288	3
TAP	27	0	2
TAP	27	0	3
TAP	27	96	2
TAP	27	96	3
TAP	27	192	1
TAP	27	192	4
TAP	28	0	4
TAP	28	0	5
TAP	28	96	4
TAP	28	96	5
TAP	28	192	2
TAP	28	192	3
TAP	28	288	2
TAP	28	288	3
TAP	29	0	3
TAP	29	0	4
TAP	29	96	2
TAP	29	96	5
TAP	29	192	1
TAP	29	192	6
TAP	29	288	0
TAP	29	288	7
STR	30	0	0
SSL	30	0	0	96	480	4
HLD	32	0	2	192
TAP	32	192	3
TAP	32	288	3
HLD	33	0	5	192
TAP	33	192	4
TAP	33	288	4
HLD	34	0	1	192
TAP	34	192	3
TAP	34	288	3
HLD	35	0	6	192
TAP	35	192	4
TAP	35	288	4
HLD	36	0	2	192
TAP	36	192	3
TAP	36	288	1
HLD	37	0	5	192
TAP	37	192	4
TAP	37	288	6
TAP	38	0	3
TAP	38	0	4
TAP	38	96	2
TAP	38	96	5
TAP	38	192	1
TAP	38	192	6
STR	38	288	0
SI_	38	288	0	96	192	3
STR	38	288	7
SI_	38	288	7	96	192	4
TAP	40	0	2
TAP	40	96	3
TAP	40	192	1
TAP	40	192	4
TAP	40	288	1
TAP	40	288	4
TAP	41	0	5
TAP	41	96	4
TAP	41	192	3
TAP	41	192	6
TAP	41	288	3
TAP	41	288	6
TAP	42	0	2
TAP	42	96	3
TAP	42	192	4
TAP	42	288	5
STR	43	0	3
SI_	43	0	3	96	192	0
STR	43	0	4
SI_	43	0	4	96	192	7
TAP	44	0	1
TAP	44	96	0
TAP	44	192	2
TAP	44	192	7
TAP	44	288	2
TAP	44	288	7
TAP	45	0	6
TAP	45	96	7
TAP	45	192	0
TAP	45	192	5
TAP	45	288	0
TAP	45	288	5
TAP	46	0	6
TAP	46	96	7
TAP	46	192	0
TAP	46	288	1
BRK	47	0	0
BRK	47	0	7
STR	48	0	1
SLR	48	0	1	96	480	5
STR	50	0	6
SLL	50	0	6	96	480	2
STR	52	0	0
SXL	52	0	0	96	480	3
STR	54	0	7
SXR	54	0	7	96	480	4
HLD	56	0	2	384
HLD	57	0	3	384
HLD	58	0	4	384
HLD	59	0	5	384
HLD	60	0	2	288
TAP	60	192	3
TAP	60	288	3
HLD	61	0	5	288
TAP	61	192	4
TAP	61	288	4
STR	62	0	3
SCL	62	0	3	96	480	4
HLD	64	0	2	96
HLD	64	0	3	96
TAP	64	192	2
TAP	64	240	3
TAP	64	288	2
HLD	65	0	4	96
HLD	65	0	5	96
TAP	65	192	5
TAP	65	240	4
TAP	65	288	5
TAP	66	0	2
TAP	66	0	3
TAP	66	96	2
TAP	66	96	3
TAP	66	192	4
TAP	66	192	5
TAP	66	288	4
TAP	66	288	5
STR	67	0	3
SI_	67	0	3	96	192	0
STR	67	0	4
SI_	67	0	4	96	192	7
HLD	68	0	0	96
HLD	68	0	1	96
TAP	68	192	1
TAP	68	240	0
TAP	68	288	1
HLD	69	0	6	96
HLD	69	0	7	96
TAP	69	192	6
TAP	69	240	7
TAP	69	288	6
TAP	70	0	0
TAP	70	0	1
TAP	70	96	0
TAP	70	96	1
TAP	70	192	6
TAP	70	192	7
TAP	70	288	6
TAP	70	288	7
STR	71	0	0
SI_	71	0	0	96	192	3
STR	71	0	7
SI_	71	0	7	96	192	4
TAP	72	0	2
TAP	72	0	3
TAP	72	96	1
TAP	72	96	4
TAP	72	192	2
TAP	72	240	3
TAP	72	288	2
TAP	73	0	4
TAP	73	0	5
TAP	73	96	3
TAP	73	96	6
TAP	73	192	5
TAP	73	240	4
TAP	73	288	5
TAP	74	0	2
TAP	74	48	2
TAP	74	96	2
TAP	74	192	5
TAP	74	240	5
TAP	74	288	5
STR	75	0	2
SI_	75	0	2	96	192	7
STR	75	0	3
SI_	75	0	3	96	192	6
TAP	76	0	4
TAP	76	0	5
TAP	76	96	3
TAP	76	96	6
TAP	76	192	5
TAP	76	240	4
TAP	76	288	5
TAP	77	0	2
TAP	77	0	3
TAP	77	96	1
TAP	77	96	4
TAP	77	192	2
TAP	77	240	3
TAP	77	288	2
TAP	78	0	5
TAP	78	48	5
TAP	78	96	5
TAP	78	192	2
TAP	78	240	2
TAP	78	288	2
STR	79	0	4
SI_	79	0	4	96	192	1
STR	79	0	5
SI_	79	0	5	96	192	0
TAP	80	0	6
TAP	80	96	6
TAP	80	192	7
TAP	80	288	6
TAP	81	0	1
TAP	81	96	1
TAP	81	192	0
TAP	81	288	1
TAP	82	0	6
TAP	82	96	6
TAP	82	192	7
TAP	82	288	6
TAP	83	0	1
TAP	83	96	1
TAP	83	192	0
TAP	83	288	1
TAP	84	0	2
TAP	84	96	2
TAP	84	192	2
TAP	84	192	3
TAP	84	288	2
TAP	84	288	3
TAP	85	0	5
TAP	85	96	5
TAP	85	192	4
TAP	85	192	5
TAP	85	288	4
TAP	85	288	5
TAP	86	0	2
TAP	86	96	2
TAP	86	192	2
TAP	86	192	3
TAP	86	288	2
TAP	86	288	3
TAP	87	0	3
TAP	87	0	4
TAP	87	96	2
TAP	87	96	5

T_REC_TAP	252
T_REC_BRK	4
T_REC_XTP	0
T_REC_HLD	24
T_REC_XHO	0
T_REC_STR	21
T_REC_BST	0
T_REC_XST	0
T_REC_TTP	0
T_REC_THO	0
T_REC_SLD	21
T_REC_ALL	322
T_NUM_TAP	273
T_NUM_BRK	4
T_NUM_HLD	24
T_NUM_SLD	21
T_NUM_ALL	322
T_JUDGE_TAP	277
T_JUDGE_HLD	100
T_JUDGE_SLD	21
T_JUDGE_ALL	398
TTM_EACHPAIRS	65
TTM_SCR_TAP	136500
TTM_SCR_BRK	10400
TTM_SCR_HLD	24000
TTM_SCR_SLD	31500
TTM_SCR_ALL	202400
TTM_SCR_S	195950
TTM_SCR_SS	202000
TTM_RAT_ACV	10019

