VERSION	0.00.00	1.03.00
FES_MODE	0
BPM_DEF	156.000	156.000	156.000	156.000
MET_DEF	4	4
RESOLUTION	384
CLK_DEF	384
COMPATIBLE_CODE	MA2

BPM	0	0	156.000
MET	0	0	4	4

TAP	2	0	0
TAP	3	0	0
TAP	3	192	0
TAP	4	0	7
TAP	5	0	7
TAP	5	192	7
TAP	6	0	0
TAP	7	0	1
TAP	7	192	1
TAP	8	0	7
BRK	9	0	7
TAP	10	0	6
TAP	11	0	5
TAP	12	0	4
TAP	13	0	3
HLD	14	0	2	192
TAP	15	0	1
TAP	16	0	0
TAP	16	192	0
TAP	17	0	1
TAP	17	192	1
TAP	18	0	2
TAP	18	192	2
TAP	19	0	3
TAP	19	192	3
TAP	20	0	4
TAP	20	192	4
TAP	21	0	5
TAP	21	192	5
TAP	22	0	6
TAP	22	192	6
TAP	23	0	0
TAP	23	0	7
TAP	24	0	7
TAP	24	192	7
TAP	25	0	6
TAP	25	192	6
TAP	26	0	5
TAP	26	192	5
TAP	27	0	4
TAP	27	192	4
TAP	28	0	3
TAP	28	192	3
TAP	29	0	2
TAP	29	192	2
TAP	30	0	1
TAP	30	192	1
BRK	31	0	0
STR	32	0	7
SI_	32	0	7	96	288	3
STR	34	0	0
SI_	34	0	0	96	288	4
STR	36	0	7
SI_	36	0	7	96	288	3
TAP	38	0	0
TAP	38	192	7
HLD	39	0	1	192
HLD	39	0	6	192
TAP	40	0	0
TAP	40	96	0
TAP	40	192	1
TAP	40	288	1
TAP	41	0	2
TAP	41	96	2
TAP	41	192	3
TAP	41	192	4
TAP	42	0	4
TAP	42	96	4
TAP	42	192	5
TAP	42	288	5
HLD	43	0	6	192
HLD	43	0	7	192
TAP	44	0	7
TAP	44	96	7
TAP	44	192	6
TAP	44	288	6
TAP	45	0	5
TAP	45	96	5
TAP	45	192	3
TAP	45	192	4
TAP	46	0	3
TAP	46	96	3
TAP	46	192	2
TAP	46	288	2
HLD	47	0	0	192
HLD	47	0	1	192
TAP	48	0	0
TAP	48	192	0
TAP	49	0	1
TAP	49	192	1
TAP	50	0	2
TAP	50	192	2
TAP	51	0	3
TAP	51	192	3
TAP	52	0	4
TAP	52	192	4
TAP	53	0	5
TAP	53	192	5
TAP	54	0	6
TAP	54	192	6
TAP	55	0	7
TAP	55	192	7
TAP	56	0	0
TAP	56	0	7
TAP	57	0	0
TAP	57	0	7
TAP	58	0	6
TAP	58	0	7
TAP	59	0	6
TAP	59	0	7
TAP	60	0	0
TAP	60	0	1
TAP	61	0	0
TAP	61	0	1
TAP	62	0	0
TAP	62	192	0
HLD	63	0	7	192
TAP	64	0	0
TAP	64	0	1
TAP	65	0	6
TAP	65	0	7
TAP	66	0	5
TAP	66	96	5
TAP	66	192	4
TAP	66	288	4
HLD	67	0	2	192
HLD	67	0	3	192
TAP	68	0	1
TAP	68	96	1
TAP	68	192	2
TAP	68	288	2
TAP	69	0	3
TAP	69	96	3
TAP	69	192	4
TAP	69	192	5
TAP	70	0	4
TAP	70	96	4
TAP	70	192	5
TAP	70	288	5
TAP	71	0	6
TAP	71	96	6
TAP	71	192	6
TAP	71	192	7
TAP	72	0	6
TAP	72	0	7
TAP	72	192	6
TAP	72	192	7
TAP	73	0	0
TAP	73	0	1
TAP	73	192	0
TAP	73	192	1
TAP	74	0	2
TAP	74	96	2
TAP	74	192	3
TAP	74	288	3
HLD	75	0	4	192
HLD	75	0	5	192
TAP	76	0	6
TAP	76	96	6
TAP	76	192	5
TAP	76	288	5
TAP	77	0	4
TAP	77	96	4
TAP	77	192	2
TAP	77	192	3
TAP	78	0	1
TAP	78	96	1
TAP	78	192	0
TAP	78	288	0
HLD	79	0	7	192
STR	80	0	0
SI_	80	0	0	96	288	3
STR	81	360	7
SI_	81	360	7	96	312	4
TAP	84	0	2
TAP	84	0	3
TAP	84	192	2
TAP	84	192	3
TAP	85	0	0
TAP	85	0	1
TAP	85	192	0
TAP	85	192	1
TAP	86	0	6
TAP	86	0	7
TAP	86	192	6
TAP	86	192	7
HLD	87	0	4	144
HLD	87	0	5	144

T_REC_TAP	161
T_REC_BRK	2
T_REC_XTP	0
T_REC_HLD	15
T_REC_XHO	0
T_REC_STR	5
T_REC_BST	0
T_REC_XST	0
T_REC_TTP	0
T_REC_THO	0
T_REC_SLD	5
T_REC_ALL	188
T_NUM_TAP	166
T_NUM_BRK	2
T_NUM_HLD	15
T_NUM_SLD	5
T_NUM_ALL	188
T_JUDGE_TAP	168
T_JUDGE_HLD	58
T_JUDGE_SLD	5
T_JUDGE_ALL	231
TTM_EACHPAIRS	30
TTM_SCR_TAP	83000
TTM_SCR_BRK	5200
TTM_SCR_HLD	15000
TTM_SCR_SLD	7500
TTM_SCR_ALL	110700
TTM_SCR_S	107200
TTM_SCR_SS	110500
TTM_RAT_ACV	10018

