VERSION	0.00.00	1.03.00
FES_MODE	0
BPM_DEF	190.000	190.000	190.000	180.000
MET_DEF	4	4
RESOLUTION	384
CLK_DEF	384
COMPATIBLE_CODE	MA2

BPM	0	0	190.000
BPM	54	0	180.000
BPM	80	0	190.000
MET	0	0	4	4

TAP	1	0	2
TAP	1	48	2
TAP	1	72	3
TAP	1	96	4
TAP	1	144	4
TAP	1	192	2
TAP	1	192	5
TAP	1	240	4
TAP	1	288	3
TAP	1	336	3
TAP	1	336	4
TAP	2	48	5
TAP	2	72	4
TAP	2	96	3
TAP	2	144	2
TAP	2	168	3
TAP	2	192	4
TAP	2	240	4
TAP	2	288	5
TAP	2	336	2
TAP	3	0	5
TAP	3	48	5
TAP	3	72	4
TAP	3	96	3
TAP	3	144	3
TAP	3	192	2
TAP	3	192	5
TAP	3	240	3
TAP	3	288	4
TAP	3	336	3
TAP	3	336	4
TAP	4	48	2
TAP	4	72	3
TAP	4	96	4
TAP	4	144	5
TAP	4	168	4
TAP	4	192	3
TAP	4	240	3
TAP	4	288	1
TAP	4	288	6
STR	5	0	2
SI_	5	0	2	96	48	7
TAP	5	48	2
STR	5	96	6
SI_	5	96	6	96	48	3
TAP	5	144	6
STR	5	192	1
SI_	5	192	1	96	48	4
TAP	5	240	1
STR	5	288	5
SI_	5	288	5	96	48	0
TAP	5	336	5
STR	6	0	2
SI_	6	0	2	96	48	7
TAP	6	48	2
STR	6	96	6
SI_	6	96	6	96	48	3
TAP	6	144	6
TAP	6	192	1
TAP	6	240	1
TAP	6	288	2
TAP	6	288	7
TAP	6	336	2
TAP	6	336	7
STR	7	0	5
SI_	7	0	5	96	48	0
TAP	7	48	5
STR	7	96	1
SI_	7	96	1	96	48	4
TAP	7	144	1
STR	7	192	6
SI_	7	192	6	96	48	3
TAP	7	240	6
STR	7	288	2
SI_	7	288	2	96	48	7
TAP	7	336	2
STR	8	0	5
SI_	8	0	5	96	48	0
TAP	8	48	5
STR	8	96	1
SI_	8	96	1	96	48	4
TAP	8	144	1
TAP	8	192	6
TAP	8	288	0
TAP	8	288	5
STR	9	0	5
SI_	9	0	5	96	48	0
TAP	9	48	5
STR	9	96	1
SI_	9	96	1	96	48	4
TAP	9	144	1
STR	9	192	6
SI_	9	192	6	96	48	3
TAP	9	240	6
STR	9	288	2
SI_	9	288	2	96	48	7
TAP	9	336	2
STR	10	0	5
SI_	10	0	5	96	48	0
TAP	10	48	5
STR	10	96	1
SI_	10	96	1	96	48	4
TAP	10	144	1
TAP	10	192	6
TAP	10	240	6
TAP	10	288	0
TAP	10	288	5
TAP	10	336	0
TAP	10	336	5
STR	11	0	2
SI_	11	0	2	96	48	7
TAP	11	48	2
STR	11	96	6
SI_	11	96	6	96	48	3
TAP	11	144	6
STR	11	192	1
SI_	11	192	1	96	48	4
TAP	11	240	1
STR	11	288	5
SI_	11	288	5	96	48	0
TAP	11	336	5
STR	12	0	2
SI_	12	0	2	96	48	7
TAP	12	48	2
STR	12	96	6
SI_	12	96	6	96	48	3
TAP	12	144	6
TAP	12	192	1
BRK	12	288	2
BRK	12	288	7
TAP	13	0	6
TAP	13	0	7
TAP	13	96	0
TAP	13	96	4
TAP	13	192	6
TAP	13	240	4
TAP	13	288	3
HLD	13	336	2	96
TAP	14	48	3
TAP	14	96	1
TAP	14	96	4
STR	14	144	5
SXL	14	144	5	96	96	7
SXR	14	144	5	96	96	3
TAP	14	168	4
TAP	14	192	5
TAP	15	0	0
TAP	15	0	1
TAP	15	96	3
TAP	15	96	7
TAP	15	192	1
TAP	15	240	3
TAP	15	288	4
HLD	15	336	5	96
TAP	16	48	4
TAP	16	96	3
TAP	16	96	6
STR	16	144	2
SXL	16	144	2	96	96	4
SXR	16	144	2	96	96	0
TAP	16	168	3
TAP	16	192	2
TAP	17	0	6
TAP	17	0	7
TAP	17	96	0
TAP	17	96	5
TAP	17	192	1
TAP	17	240	3
TAP	17	288	4
HLD	17	336	5	96
TAP	18	48	4
TAP	18	96	3
TAP	18	144	2
TAP	18	192	1
TAP	18	192	4
STR	18	288	6
SI_	18	288	6	96	48	3
STR	19	0	1
SI_	19	0	1	96	48	4
STR	19	96	7
SI_	19	96	7	96	48	3
STR	19	192	0
SI_	19	192	0	96	48	4
TAP	19	288	7
TAP	19	336	7
TAP	20	48	1
TAP	20	48	6
STR	20	96	1
SI_	20	96	1	96	48	5
STR	20	96	6
SI_	20	96	6	96	48	2
STR	20	192	1
SCL	20	192	1	96	384	4
STR	20	192	6
SCR	20	192	6	96	384	3
TAP	22	48	2
TAP	22	72	3
TAP	22	96	4
TAP	22	144	5
TAP	22	168	4
TAP	22	192	3
TAP	22	240	3
TAP	22	288	2
TAP	22	336	5
TAP	23	0	2
TAP	23	48	2
TAP	23	72	3
TAP	23	96	4
TAP	23	144	4
TAP	23	192	2
TAP	23	192	5
TAP	23	240	4
TAP	23	288	3
TAP	23	336	3
TAP	23	336	4
TAP	24	48	5
TAP	24	72	4
TAP	24	96	3
TAP	24	144	2
TAP	24	168	3
TAP	24	192	4
TAP	24	240	4
TAP	24	288	1
TAP	24	288	6
TAP	25	0	1
TAP	25	0	4
TAP	25	48	2
TAP	25	72	3
TAP	25	96	2
TAP	25	144	4
TAP	25	144	5
TAP	25	192	3
TAP	25	192	6
TAP	25	240	5
TAP	25	264	4
TAP	25	288	5
TAP	25	336	2
TAP	25	336	3
TAP	26	0	1
TAP	26	0	4
TAP	26	48	2
TAP	26	72	3
TAP	26	96	2
TAP	26	144	4
TAP	26	144	5
TAP	26	192	6
TAP	26	240	4
TAP	26	288	3
TAP	26	336	1
TAP	27	0	3
TAP	27	0	6
TAP	27	48	5
TAP	27	72	4
TAP	27	96	5
TAP	27	144	2
TAP	27	144	3
TAP	27	192	1
TAP	27	192	4
TAP	27	240	2
TAP	27	264	3
TAP	27	288	2
TAP	27	336	3
TAP	27	336	4
TAP	28	0	0
TAP	28	0	5
TAP	28	48	6
TAP	28	72	7
TAP	28	96	6
TAP	28	144	3
TAP	28	144	4
TAP	28	192	2
TAP	28	240	0
TAP	28	288	7
TAP	28	336	5
TAP	29	0	1
HLD	29	0	6	720
TAP	29	48	1
TAP	29	96	2
TAP	29	144	2
TAP	29	192	1
TAP	29	240	1
TAP	29	288	0
TAP	29	336	0
TAP	30	0	1
TAP	30	48	2
TAP	30	96	3
TAP	30	144	2
TAP	30	192	1
TAP	30	240	0
TAP	30	288	1
TAP	30	336	2
TAP	31	0	1
TAP	31	0	4
TAP	31	48	2
TAP	31	72	3
TAP	31	96	2
TAP	31	144	4
TAP	31	144	5
TAP	31	192	3
TAP	31	192	6
TAP	31	240	5
TAP	31	264	4
TAP	31	288	5
TAP	31	336	3
TAP	31	336	4
TAP	32	0	2
TAP	32	0	7
TAP	32	48	1
TAP	32	72	0
TAP	32	96	1
TAP	32	144	3
TAP	32	144	4
BRK	32	192	1
BRK	32	192	6
TAP	32	288	3
TAP	32	288	4
STR	33	0	2
SI_	33	0	2	96	48	6
TAP	33	48	2
STR	33	96	5
SI_	33	96	5	96	48	1
TAP	33	144	5
STR	33	192	2
SI_	33	192	2	96	48	7
TAP	33	240	2
STR	33	288	5
SI_	33	288	5	96	48	0
TAP	33	336	5
STR	34	0	3
SI_	34	0	3	96	48	7
TAP	34	48	3
TAP	34	96	4
TAP	34	144	4
STR	34	192	1
SI_	34	192	1	96	48	4
STR	34	192	6
SI_	34	192	6	96	48	3
BRK	34	288	1
BRK	34	288	6
STR	35	0	5
SI_	35	0	5	96	48	1
TAP	35	48	5
STR	35	96	2
SI_	35	96	2	96	48	6
TAP	35	144	2
STR	35	192	5
SI_	35	192	5	96	48	0
TAP	35	240	5
STR	35	288	2
SI_	35	288	2	96	48	7
TAP	35	336	2
TAP	36	0	4
TAP	36	48	4
STR	36	96	0
SXL	36	96	0	96	144	3
STR	36	96	7
SXR	36	96	7	96	144	4
STR	37	0	2
SCR	37	0	2	96	48	5
TAP	37	48	2
STR	37	96	6
SUL	37	96	6	96	48	2
TAP	37	144	6
STR	37	192	1
SUR	37	192	1	96	48	5
TAP	37	240	1
STR	37	288	6
SXL	37	288	6	96	96	1
TAP	37	336	6
STR	38	192	1
SUR	38	192	1	96	48	6
STR	38	192	2
SCR	38	192	2	96	48	5
TAP	38	240	1
TAP	38	240	2
HLD	39	0	4	48
HLD	39	48	3	48
HLD	39	96	6	48
HLD	39	144	1	48
HLD	39	192	5	48
HLD	39	240	2	48
HLD	39	288	7	48
TAP	39	336	0
HLD	40	0	0	48
HLD	40	0	1	48
TAP	40	96	2
TAP	40	96	7
HLD	40	144	6	48
HLD	40	144	7	48
TAP	40	240	0
TAP	40	240	5
TAP	40	288	3
TAP	40	288	4
TAP	40	336	2
TAP	40	336	5
TAP	41	0	3
TAP	41	0	4
TAP	41	96	0
TAP	41	96	7
BST	41	192	1
SI_	41	192	1	96	48	4
BST	41	192	6
SI_	41	192	6	96	48	3
TAP	42	0	1
TAP	42	0	5
TAP	42	48	2
TAP	42	48	6
STR	42	96	3
SLL	42	96	3	96	96	4
STR	42	96	7
SLL	42	96	7	96	96	0
TAP	42	336	3
TAP	42	336	7
TAP	43	48	5
TAP	43	72	4
STR	43	96	5
SXL	43	96	5	96	96	6
SXR	43	96	5	96	96	4
TAP	43	144	3
TAP	43	144	6
TAP	43	336	2
TAP	43	360	3
STR	44	0	1
SCR	44	0	1	96	48	4
TAP	44	48	1
STR	44	96	5
SUL	44	96	5	96	48	1
TAP	44	144	5
STR	44	192	0
SUR	44	192	0	96	48	4
TAP	44	240	0
STR	44	288	5
SXL	44	288	5	96	96	0
TAP	44	336	5
TAP	45	0	0
STR	45	192	0
SI_	45	192	0	96	48	4
STR	45	192	7
SI_	45	192	7	96	48	3
TAP	45	288	0
TAP	45	288	7
TAP	46	0	2
TAP	46	0	6
TAP	46	48	1
TAP	46	48	5
STR	46	96	0
SLR	46	96	0	96	96	7
STR	46	96	4
SLR	46	96	4	96	96	3
TAP	46	336	0
TAP	46	336	4
TAP	47	48	2
TAP	47	72	3
STR	47	96	2
SI_	47	96	2	96	96	0
SI_	47	96	2	96	96	6
TAP	47	144	1
TAP	47	144	4
TAP	47	336	5
TAP	47	360	4
STR	48	0	6
SCL	48	0	6	96	48	3
TAP	48	48	6
STR	48	96	2
SUR	48	96	2	96	48	6
TAP	48	144	2
STR	48	192	7
SUL	48	192	7	96	48	3
TAP	48	240	7
STR	48	288	2
SXR	48	288	2	96	96	7
TAP	48	336	2
TAP	49	0	7
TAP	49	192	1
TAP	49	192	6
TAP	49	336	5
TAP	49	360	4
STR	50	0	6
SCR	50	0	6	96	96	1
STR	50	96	1
SCR	50	96	1	96	96	4
STR	50	192	4
SCR	50	192	4	96	96	7
STR	50	288	7
SI_	50	288	7	96	96	3
STR	51	0	3
SCL	51	0	3	96	96	0
STR	51	96	0
SF_	51	96	0	96	96	4
STR	52	0	1
SI_	52	0	1	96	48	3
SI_	52	0	1	96	48	7
TAP	52	48	1
TAP	52	96	1
TAP	52	192	0
TAP	52	192	7
STR	52	240	3
SI_	52	240	3	96	48	0
STR	52	240	4
SI_	52	240	4	96	48	7
TAP	52	288	2
TAP	52	288	5
TAP	53	48	1
STR	53	96	1
SF_	53	96	1	96	96	5
BRK	53	192	1
TAP	54	0	2
TAP	54	32	4
TAP	54	64	3
TAP	54	96	5
TAP	54	128	4
TAP	54	160	5
TAP	54	192	3
TAP	54	224	4
TAP	54	256	2
TAP	54	288	3
TAP	54	288	4
STR	55	0	7
SCL	55	0	7	96	192	3
TAP	55	64	1
TAP	55	128	1
STR	55	192	3
SUR	55	192	3	96	192	7
TAP	55	256	1
TAP	55	320	1
STR	56	0	7
SCL	56	0	7	96	192	3
TAP	56	64	1
TAP	56	128	1
TAP	56	192	3
TAP	56	256	1
TAP	56	320	1
STR	57	0	0
SCR	57	0	0	96	192	4
TAP	57	64	6
TAP	57	128	6
STR	57	192	4
SUL	57	192	4	96	192	0
TAP	57	256	6
TAP	57	320	6
STR	58	0	0
SCR	58	0	0	96	192	4
TAP	58	64	6
TAP	58	128	6
TAP	58	192	4
TAP	58	256	6
TAP	58	320	6
STR	59	0	7
SCL	59	0	7	96	192	3
TAP	59	64	1
TAP	59	128	1
STR	59	192	3
SUR	59	192	3	96	192	7
TAP	59	256	1
TAP	59	320	1
STR	60	0	7
SCL	60	0	7	96	192	3
TAP	60	64	1
TAP	60	128	1
TAP	60	192	3
TAP	60	256	1
TAP	60	320	1
TAP	61	0	2
TAP	61	32	2
TAP	61	64	3
TAP	61	96	3
TAP	61	128	4
TAP	61	160	4
TAP	61	192	3
TAP	61	224	3
TAP	61	256	4
TAP	61	288	4
TAP	61	320	5
TAP	61	352	5
TAP	62	0	4
TAP	62	32	4
TAP	62	64	3
TAP	62	96	3
TAP	62	128	2
TAP	62	160	2
TAP	62	192	3
TAP	62	224	3
TAP	62	256	4
TAP	62	288	4
TAP	62	320	5
STR	63	0	1
SCR	63	0	1	96	192	5
TAP	63	64	7
TAP	63	128	7
STR	63	192	5
SUL	63	192	5	96	192	1
TAP	63	256	7
TAP	63	320	7
STR	64	0	1
SCR	64	0	1	96	192	5
TAP	64	64	7
TAP	64	128	7
TAP	64	192	5
TAP	64	256	7
TAP	64	320	7
STR	65	0	6
SCL	65	0	6	96	192	2
TAP	65	64	0
TAP	65	128	0
STR	65	192	2
SUR	65	192	2	96	192	6
TAP	65	256	0
TAP	65	320	0
STR	66	0	6
SCL	66	0	6	96	192	2
TAP	66	64	0
TAP	66	128	0
TAP	66	192	2
TAP	66	256	0
TAP	66	320	0
STR	67	0	1
SCR	67	0	1	96	192	5
TAP	67	64	7
TAP	67	128	7
STR	67	192	5
SUL	67	192	5	96	192	1
TAP	67	256	7
TAP	67	320	7
STR	68	0	1
SCR	68	0	1	96	192	5
TAP	68	64	7
TAP	68	128	7
TAP	68	192	5
TAP	68	256	7
TAP	68	320	7
STR	69	0	7
SCL	69	0	7	96	192	3
TAP	69	64	0
TAP	69	128	0
TAP	69	192	2
TAP	69	256	0
TAP	69	320	0
TAP	70	0	4
TAP	70	32	3
TAP	70	64	4
TAP	70	96	3
TAP	70	128	4
TAP	70	160	4
TAP	70	192	2
TAP	70	224	2
TAP	70	256	3
TAP	70	288	3
TAP	70	320	4
TAP	70	352	4
STR	71	0	5
SCR	71	0	5	96	192	1
TAP	71	64	3
TAP	71	128	3
STR	71	192	1
SUL	71	192	1	96	192	5
TAP	71	256	3
TAP	71	320	3
STR	72	0	5
SCR	72	0	5	96	192	1
TAP	72	64	3
TAP	72	128	3
TAP	72	192	1
TAP	72	256	3
TAP	72	320	3
STR	73	0	2
SCL	73	0	2	96	192	6
TAP	73	64	4
TAP	73	128	4
STR	73	192	6
SUR	73	192	6	96	192	2
TAP	73	256	4
TAP	73	320	4
STR	74	0	2
SCL	74	0	2	96	192	6
TAP	74	64	4
TAP	74	128	4
TAP	74	192	6
TAP	74	256	4
TAP	74	320	4
TAP	75	0	3
TAP	75	0	4
TAP	75	64	2
TAP	75	96	3
TAP	75	128	1
TAP	75	192	3
TAP	75	192	4
TAP	75	256	5
TAP	75	288	4
TAP	75	320	6
TAP	76	0	5
TAP	76	32	5
TAP	76	64	2
TAP	76	96	2
TAP	76	128	4
TAP	76	160	4
TAP	76	192	3
TAP	76	224	3
TAP	76	256	4
TAP	76	288	4
TAP	76	320	3
TAP	76	352	3
BST	77	0	4
SCR	77	0	4	96	864	3
HLD	81	0	3	672
HLD	82	0	4	672
HLD	83	0	1	480
HLD	84	0	6	288
HLD	84	192	4	480
HLD	85	0	3	672
HLD	86	0	5	480
HLD	87	0	2	192
HLD	87	192	4	96
TAP	87	288	3
TAP	88	0	0
TAP	88	0	7
TAP	88	96	3
TAP	88	96	4
TAP	88	144	3
TAP	88	144	4
BST	88	192	1
SI_	88	192	1	96	48	4
BST	88	192	6
SI_	88	192	6	96	48	3
TAP	89	0	2
TAP	89	0	6
TAP	89	48	1
TAP	89	48	5
STR	89	96	0
SLR	89	96	0	96	96	5
STR	89	96	4
SLR	89	96	4	96	96	1
TAP	89	336	0
TAP	89	336	4
TAP	90	48	2
TAP	90	72	3
STR	90	96	2
SXL	90	96	2	96	96	3
SXR	90	96	2	96	96	1
TAP	90	144	1
TAP	90	144	4
TAP	90	336	5
TAP	90	360	4
STR	91	0	6
SCL	91	0	6	96	48	3
TAP	91	48	6
STR	91	96	2
SUR	91	96	2	96	48	6
TAP	91	144	2
STR	91	192	7
SUL	91	192	7	96	48	3
TAP	91	240	7
STR	91	288	2
SXR	91	288	2	96	96	7
TAP	91	336	2
STR	92	0	6
SSL	92	0	6	96	96	2
STR	92	192	0
SI_	92	192	0	96	48	4
TAP	93	0	1
TAP	93	0	5
TAP	93	48	2
TAP	93	48	6
STR	93	96	3
SLL	93	96	3	96	96	6
STR	93	96	7
SLL	93	96	7	96	96	2
TAP	93	336	3
TAP	93	336	7
TAP	94	48	5
TAP	94	72	4
STR	94	96	5
SI_	94	96	5	96	96	1
SI_	94	96	5	96	96	7
TAP	94	144	3
TAP	94	144	6
TAP	94	336	2
TAP	94	360	3
STR	95	0	1
SCR	95	0	1	96	48	4
TAP	95	48	1
STR	95	96	5
SUL	95	96	5	96	48	1
TAP	95	144	5
STR	95	192	0
SUR	95	192	0	96	48	4
TAP	95	240	0
STR	95	288	5
SXL	95	288	5	96	96	0
TAP	95	336	5
TAP	96	0	0
TAP	96	192	1
TAP	96	192	6
TAP	96	336	2
TAP	96	360	3
STR	97	0	1
SCL	97	0	1	96	96	6
STR	97	96	6
SCL	97	96	6	96	96	3
STR	97	192	3
SCL	97	192	3	96	96	0
STR	97	288	0
SI_	97	288	0	96	96	4
STR	98	0	4
SCR	98	0	4	96	96	7
STR	98	96	7
SF_	98	96	7	96	96	3
STR	99	0	6
SI_	99	0	6	96	48	0
SI_	99	0	6	96	48	4
TAP	99	48	6
TAP	99	96	6
TAP	99	192	0
TAP	99	192	7
STR	99	240	3
SI_	99	240	3	96	48	7
STR	99	240	4
SI_	99	240	4	96	48	0
TAP	99	288	2
TAP	99	288	5
TAP	100	48	6
STR	100	96	6
SF_	100	96	6	96	96	2
BRK	100	192	6
TAP	100	336	0
TAP	100	336	7
STR	101	0	0
SI_	101	0	0	96	48	5
HLD	101	0	7	384
STR	101	96	0
SI_	101	96	0	96	48	3
STR	101	192	0
SI_	101	192	0	96	48	4
STR	101	288	0
SLL	101	288	0	96	48	2
STR	102	96	1
SF_	102	96	1	96	96	5
BRK	102	192	1
TAP	103	0	3
TAP	103	0	4
TAP	103	48	6
TAP	103	72	7
STR	103	96	5
SI_	103	96	5	96	48	0
TAP	103	144	5
STR	103	192	1
SI_	103	192	1	96	48	4
TAP	103	240	1
TAP	103	288	7
TAP	103	336	7
TAP	104	0	3
TAP	104	0	4
TAP	104	48	1
TAP	104	72	0
STR	104	96	2
SI_	104	96	2	96	48	7
TAP	104	144	2
STR	104	192	6
SI_	104	192	6	96	48	3
TAP	104	240	6
TAP	104	288	0
TAP	104	336	0
TAP	105	0	3
TAP	105	0	4
TAP	105	48	6
TAP	105	72	7
STR	105	96	5
SI_	105	96	5	96	48	0
TAP	105	144	5
STR	105	192	1
SI_	105	192	1	96	48	4
TAP	105	240	1
TAP	105	288	7
TAP	105	336	7
TAP	106	0	3
TAP	106	0	4
TAP	106	48	1
TAP	106	72	0
STR	106	96	2
SI_	106	96	2	96	48	7
TAP	106	144	2
TAP	106	192	6
TAP	106	240	6
TAP	106	288	2
TAP	106	288	5
TAP	107	0	3
TAP	107	0	4
TAP	107	48	1
TAP	107	72	0
STR	107	96	2
SCL	107	96	2	96	48	7
TAP	107	144	2
STR	107	192	6
SCL	107	192	6	96	48	3
TAP	107	240	6
TAP	107	288	0
TAP	107	336	0
TAP	108	0	3
TAP	108	0	4
TAP	108	48	6
TAP	108	72	7
STR	108	96	5
SCR	108	96	5	96	48	0
TAP	108	144	5
STR	108	192	1
SCR	108	192	1	96	48	4
TAP	108	240	1
TAP	108	288	7
TAP	108	336	7
TAP	109	0	3
TAP	109	0	4
TAP	109	48	1
TAP	109	72	0
STR	109	96	2
SCL	109	96	2	96	48	7
TAP	109	144	2
STR	109	192	6
SCL	109	192	6	96	48	3
TAP	109	240	6
TAP	109	288	0
TAP	109	336	0
TAP	110	0	3
TAP	110	0	4
STR	110	48	6
SF_	110	48	6	96	96	2
TAP	110	72	7
TAP	110	96	5
BRK	110	288	0
BRK	110	288	4

T_REC_TAP	576
T_REC_BRK	11
T_REC_XTP	0
T_REC_HLD	25
T_REC_XHO	0
T_REC_STR	149
T_REC_BST	5
T_REC_XST	0
T_REC_TTP	0
T_REC_THO	0
T_REC_SLD	162
T_REC_ALL	928
T_NUM_TAP	725
T_NUM_BRK	16
T_NUM_HLD	25
T_NUM_SLD	162
T_NUM_ALL	928
T_JUDGE_TAP	741
T_JUDGE_HLD	124
T_JUDGE_SLD	162
T_JUDGE_ALL	1027
TTM_EACHPAIRS	110
TTM_SCR_TAP	362500
TTM_SCR_BRK	41600
TTM_SCR_HLD	25000
TTM_SCR_SLD	243000
TTM_SCR_ALL	672100
TTM_SCR_S	650400
TTM_SCR_SS	670500
TTM_RAT_ACV	10023

