VERSION	0.00.00	1.03.00
FES_MODE	0
BPM_DEF	190.000	190.000	190.000	180.000
MET_DEF	4	4
RESOLUTION	384
CLK_DEF	384
COMPATIBLE_CODE	MA2

BPM	0	0	190.000
BPM	54	0	180.000
BPM	80	0	190.000
MET	0	0	4	4

TAP	5	0	6
TAP	5	48	6
TAP	5	96	0
TAP	5	144	0
STR	5	192	7
SI_	5	192	7	96	48	3
TAP	6	0	1
TAP	6	48	1
TAP	6	96	7
TAP	6	144	7
STR	6	192	0
SI_	6	192	0	96	48	4
TAP	7	0	6
TAP	7	48	6
TAP	7	96	0
TAP	7	144	0
STR	7	192	7
SI_	7	192	7	96	48	3
TAP	8	0	1
TAP	8	48	1
TAP	8	96	7
TAP	8	144	7
STR	8	192	0
SI_	8	192	0	96	48	4
TAP	9	0	6
TAP	9	48	6
TAP	9	96	7
TAP	9	144	7
STR	9	192	6
SI_	9	192	6	96	48	3
TAP	10	0	1
TAP	10	48	1
TAP	10	96	0
TAP	10	144	0
STR	10	192	1
SI_	10	192	1	96	48	4
TAP	11	0	6
TAP	11	48	6
TAP	11	96	7
TAP	11	144	7
STR	11	192	6
SI_	11	192	6	96	48	3
TAP	12	0	1
TAP	12	48	1
TAP	12	96	0
TAP	12	144	0
STR	12	192	1
SI_	12	192	1	96	48	4
TAP	13	0	3
TAP	13	0	5
TAP	13	96	1
TAP	13	96	7
TAP	13	192	0
TAP	13	288	6
TAP	13	336	6
HLD	14	48	0	96
TAP	14	144	7
HLD	14	192	7	96
TAP	14	288	0
TAP	15	0	2
TAP	15	0	4
TAP	15	96	0
TAP	15	96	6
TAP	15	192	7
TAP	15	288	1
TAP	15	336	1
HLD	16	48	7	96
TAP	16	144	0
HLD	16	192	0	96
TAP	16	288	7
TAP	17	0	0
TAP	17	0	6
TAP	17	96	2
TAP	17	96	4
TAP	17	192	3
TAP	17	288	5
TAP	17	336	5
HLD	18	48	3	96
TAP	18	144	4
HLD	18	192	4	96
TAP	18	288	3
TAP	19	0	1
TAP	19	0	7
TAP	19	96	3
TAP	19	96	5
TAP	19	192	4
TAP	19	288	2
TAP	19	336	2
HLD	20	48	4	96
TAP	20	144	3
HLD	20	192	3	96
STR	20	288	4
SCR	20	288	4	96	288	3
TAP	22	0	1
TAP	22	48	7
TAP	22	96	1
TAP	22	144	7
STR	22	192	1
SI_	22	192	1	96	48	4
TAP	23	0	6
TAP	23	48	0
TAP	23	96	6
TAP	23	144	0
STR	23	192	6
SI_	23	192	6	96	48	3
TAP	24	0	0
TAP	24	0	1
TAP	24	96	6
TAP	24	96	7
BST	24	192	3
SI_	24	192	3	96	48	0
BST	24	192	4
SI_	24	192	4	96	48	7
TAP	25	0	6
TAP	25	48	6
TAP	25	96	7
TAP	25	192	1
TAP	25	240	1
TAP	25	288	0
TAP	26	0	6
TAP	26	48	6
TAP	26	96	7
TAP	26	192	0
TAP	26	192	1
TAP	26	288	6
TAP	26	288	7
TAP	27	0	2
TAP	27	48	2
TAP	27	96	0
TAP	27	192	5
TAP	27	240	5
TAP	27	288	7
TAP	28	0	2
TAP	28	48	2
TAP	28	96	0
TAP	28	192	5
TAP	28	192	7
TAP	28	288	0
TAP	28	288	2
TAP	29	0	5
TAP	29	48	4
TAP	29	96	5
TAP	29	192	2
TAP	29	240	3
TAP	29	288	2
TAP	30	0	5
TAP	30	48	4
TAP	30	96	5
TAP	30	192	2
TAP	30	192	3
TAP	30	288	4
TAP	30	288	5
TAP	31	0	1
TAP	31	48	3
TAP	31	96	1
TAP	31	192	6
TAP	31	240	4
TAP	31	288	6
TAP	32	0	1
TAP	32	48	3
TAP	32	96	1
TAP	32	192	4
TAP	32	192	6
TAP	32	288	1
TAP	32	288	3
TAP	33	0	7
TAP	33	48	7
TAP	33	96	1
TAP	33	144	1
TAP	33	192	5
TAP	33	240	5
TAP	33	288	3
TAP	33	336	3
TAP	34	48	2
TAP	34	48	7
TAP	34	96	2
TAP	34	96	7
BST	34	192	0
SI_	34	192	0	96	48	5
BST	34	192	1
SI_	34	192	1	96	48	4
TAP	35	0	2
TAP	35	48	2
TAP	35	96	4
TAP	35	144	4
TAP	35	192	0
TAP	35	240	0
TAP	35	288	6
TAP	35	336	6
TAP	36	48	0
TAP	36	48	5
TAP	36	96	0
TAP	36	96	5
BST	36	192	6
SI_	36	192	6	96	48	3
BST	36	192	7
SI_	36	192	7	96	48	2
HLD	37	0	1	96
TAP	37	48	0
TAP	37	96	0
HLD	37	192	6	96
TAP	37	240	7
TAP	37	288	7
HLD	38	0	2	96
TAP	38	48	3
TAP	38	96	3
HLD	38	192	5	96
TAP	38	240	4
TAP	38	288	4
STR	39	0	1
SCL	39	0	1	96	192	2
TAP	40	0	6
TAP	40	0	7
TAP	40	96	2
TAP	40	144	0
TAP	40	144	1
TAP	40	240	5
TAP	40	288	1
TAP	40	288	6
TAP	40	336	1
TAP	40	336	6
TAP	41	96	3
TAP	41	96	4
TAP	41	192	0
TAP	41	192	7
BRK	41	288	1
BRK	41	288	6
TAP	42	0	6
TAP	42	48	6
TAP	42	96	6
TAP	42	96	7
TAP	42	192	1
TAP	42	240	1
TAP	42	288	0
TAP	42	288	1
TAP	43	0	7
TAP	43	48	0
TAP	43	96	7
TAP	43	144	0
HLD	43	192	1	96
HLD	43	192	6	96
TAP	44	0	5
TAP	44	48	5
TAP	44	96	4
TAP	44	96	5
TAP	44	192	2
TAP	44	240	2
TAP	44	288	2
TAP	44	288	3
TAP	45	0	4
TAP	45	48	3
TAP	45	96	4
TAP	45	144	3
HLD	45	192	2	96
HLD	45	192	5	96
TAP	46	0	0
TAP	46	0	7
BRK	46	96	2
BRK	46	96	5
TAP	46	192	6
TAP	46	240	6
TAP	46	288	3
TAP	46	336	3
TAP	47	48	2
TAP	47	48	7
TAP	47	96	2
TAP	47	96	7
STR	47	192	0
SI_	47	192	0	96	48	5
STR	47	192	1
SI_	47	192	1	96	48	4
TAP	48	0	2
TAP	48	48	3
TAP	48	96	2
TAP	48	192	5
TAP	48	240	4
TAP	48	288	5
STR	49	0	6
SCL	49	0	6	96	96	3
STR	49	0	7
SCR	49	0	7	96	96	2
STR	50	0	0
SI_	50	0	0	96	48	2
STR	50	0	4
SI_	50	0	4	96	48	6
STR	50	192	3
SI_	50	192	3	96	48	1
STR	50	192	7
SI_	50	192	7	96	48	5
STR	51	0	0
SI_	51	0	0	96	48	2
STR	51	0	4
SI_	51	0	4	96	48	6
STR	51	192	3
SI_	51	192	3	96	48	1
STR	51	192	7
SI_	51	192	7	96	48	5
TAP	52	0	0
TAP	52	0	7
TAP	52	48	0
TAP	52	48	7
TAP	52	96	0
TAP	52	96	7
TAP	52	192	3
TAP	52	192	4
TAP	52	240	3
TAP	52	240	4
TAP	52	288	3
TAP	52	288	4
STR	53	0	1
SI_	53	0	1	96	96	7
STR	53	0	2
SI_	53	0	2	96	96	4
STR	55	0	7
SCL	55	0	7	96	288	4
STR	56	0	0
SCR	56	0	0	96	288	3
STR	57	0	5
SCR	57	0	5	96	288	0
STR	58	0	2
SCL	58	0	2	96	288	7
STR	59	0	4
SCR	59	0	4	96	288	7
STR	60	0	3
SCL	60	0	3	96	288	0
STR	61	0	6
SCL	61	0	6	96	288	3
STR	62	0	1
SCR	62	0	1	96	288	4
STR	63	0	6
SUR	63	0	6	96	288	3
STR	64	0	0
SUR	64	0	0	96	288	5
STR	65	0	7
SUL	65	0	7	96	288	2
STR	66	0	1
SUL	66	0	1	96	288	4
STR	67	0	5
SUL	67	0	5	96	288	0
STR	68	0	3
SUL	68	0	3	96	288	6
STR	69	0	4
SUR	69	0	4	96	288	1
STR	70	0	2
SUR	70	0	2	96	288	7
STR	71	0	5
SUL	71	0	5	96	288	3
STR	72	0	1
SUL	72	0	1	96	288	7
STR	73	0	4
SUR	73	0	4	96	288	6
STR	74	0	0
SUR	74	0	0	96	288	2
STR	75	0	6
SUL	75	0	6	96	288	5
STR	76	0	1
SUR	76	0	1	96	288	2
BST	77	0	7
SF_	77	0	7	96	672	3
HLD	81	0	1	672
HLD	81	0	6	288
HLD	82	0	5	672
HLD	83	0	2	480
HLD	84	0	4	288
HLD	84	192	3	96
HLD	85	0	6	288
HLD	85	0	7	288
HLD	86	0	0	288
HLD	86	0	1	288
HLD	87	0	3	288
HLD	87	0	4	288
BRK	88	0	2
BRK	88	0	5
BRK	88	96	1
BRK	88	96	6
BST	88	192	0
SI_	88	192	0	96	48	3
BST	88	192	7
SI_	88	192	7	96	48	4
TAP	89	0	6
TAP	89	48	7
TAP	89	96	6
TAP	89	96	7
TAP	89	192	1
TAP	89	240	0
TAP	89	288	0
TAP	89	288	1
TAP	90	0	5
TAP	90	48	2
TAP	90	96	6
TAP	90	144	1
HLD	90	192	0	96
HLD	90	192	7	96
TAP	91	0	5
TAP	91	48	4
TAP	91	96	4
TAP	91	96	5
TAP	91	192	2
TAP	91	240	3
TAP	91	288	2
TAP	91	288	3
TAP	92	0	6
TAP	92	48	1
TAP	92	96	5
TAP	92	144	2
HLD	92	192	3	96
HLD	92	192	4	96
TAP	93	0	0
TAP	93	0	7
BRK	93	96	2
BRK	93	96	5
TAP	93	192	1
TAP	93	240	1
TAP	93	288	4
TAP	93	336	4
TAP	94	48	0
TAP	94	48	5
TAP	94	96	0
TAP	94	96	5
STR	94	192	6
SI_	94	192	6	96	48	3
STR	94	192	7
SI_	94	192	7	96	48	2
TAP	95	0	5
TAP	95	48	4
TAP	95	96	5
TAP	95	192	2
TAP	95	240	3
TAP	95	288	2
STR	96	0	0
SCL	96	0	0	96	96	5
STR	96	0	1
SCR	96	0	1	96	96	4
STR	97	0	3
SI_	97	0	3	96	48	1
STR	97	0	7
SI_	97	0	7	96	48	5
STR	97	192	0
SI_	97	192	0	96	48	2
STR	97	192	4
SI_	97	192	4	96	48	6
STR	98	0	3
SI_	98	0	3	96	48	1
STR	98	0	7
SI_	98	0	7	96	48	5
STR	98	192	0
SI_	98	192	0	96	48	2
STR	98	192	4
SI_	98	192	4	96	48	6
TAP	99	0	0
TAP	99	0	7
TAP	99	48	0
TAP	99	48	7
TAP	99	96	0
TAP	99	96	7
TAP	99	192	3
TAP	99	192	4
TAP	99	240	3
TAP	99	240	4
TAP	99	288	3
TAP	99	288	4
STR	100	0	5
SI_	100	0	5	96	96	3
STR	100	0	6
SI_	100	0	6	96	96	0
TAP	101	0	6
TAP	101	0	7
TAP	101	48	0
TAP	101	48	5
TAP	101	96	1
TAP	101	96	4
TAP	101	192	0
TAP	101	192	1
TAP	101	240	2
TAP	101	240	7
TAP	101	288	3
TAP	101	288	6
STR	102	0	7
SLL	102	0	7	96	96	3
SLR	102	0	7	96	96	3
TAP	103	0	5
TAP	103	48	5
TAP	103	96	6
TAP	103	144	6
STR	103	192	7
SI_	103	192	7	96	48	3
TAP	104	0	2
TAP	104	48	2
TAP	104	96	1
TAP	104	144	1
STR	104	192	0
SI_	104	192	0	96	48	4
TAP	105	0	5
TAP	105	48	5
TAP	105	96	6
TAP	105	144	6
STR	105	192	7
SI_	105	192	7	96	48	3
TAP	106	0	2
TAP	106	48	2
TAP	106	96	1
TAP	106	144	1
STR	106	192	0
SI_	106	192	0	96	48	4
TAP	107	0	6
TAP	107	48	6
TAP	107	96	0
TAP	107	144	0
STR	107	192	7
SI_	107	192	7	96	48	2
SI_	107	192	7	96	48	3
TAP	108	0	1
TAP	108	48	1
TAP	108	96	7
TAP	108	144	7
STR	108	192	0
SI_	108	192	0	96	48	4
SI_	108	192	0	96	48	5
TAP	109	0	6
TAP	109	48	6
TAP	109	96	0
TAP	109	144	0
STR	109	192	7
SI_	109	192	7	96	48	2
SI_	109	192	7	96	48	3
TAP	110	0	0
TAP	110	0	1
TAP	110	96	6
TAP	110	96	7
BST	110	192	3
SI_	110	192	3	96	48	0
BST	110	192	4
SI_	110	192	4	96	48	7

T_REC_TAP	325
T_REC_BRK	10
T_REC_XTP	0
T_REC_HLD	32
T_REC_XHO	0
T_REC_STR	70
T_REC_BST	11
T_REC_XST	0
T_REC_TTP	0
T_REC_THO	0
T_REC_SLD	85
T_REC_ALL	533
T_NUM_TAP	395
T_NUM_BRK	21
T_NUM_HLD	32
T_NUM_SLD	85
T_NUM_ALL	533
T_JUDGE_TAP	416
T_JUDGE_HLD	128
T_JUDGE_SLD	85
T_JUDGE_ALL	629
TTM_EACHPAIRS	94
TTM_SCR_TAP	197500
TTM_SCR_BRK	54600
TTM_SCR_HLD	32000
TTM_SCR_SLD	127500
TTM_SCR_ALL	411600
TTM_SCR_S	397250
TTM_SCR_SS	409500
TTM_RAT_ACV	10051

