VERSION	0.00.00	1.03.00
FES_MODE	0
BPM_DEF	190.000	190.000	190.000	180.000
MET_DEF	4	4
RESOLUTION	384
CLK_DEF	384
COMPATIBLE_CODE	MA2

BPM	0	0	190.000
BPM	54	0	180.000
BPM	80	0	190.000
MET	0	0	4	4

STR	1	0	2
SXR	1	0	2	96	480	4
STR	3	0	5
SXL	3	0	5	96	480	3
TAP	5	0	2
TAP	5	96	2
TAP	5	192	3
TAP	5	192	4
TAP	6	0	5
TAP	6	96	5
TAP	6	192	3
TAP	6	192	4
TAP	7	0	2
TAP	7	96	2
TAP	7	192	2
TAP	7	192	3
TAP	8	0	5
TAP	8	96	5
TAP	8	192	4
TAP	8	192	5
TAP	8	288	3
TAP	8	288	6
TAP	9	0	2
TAP	9	96	2
TAP	9	192	0
TAP	9	192	1
TAP	10	0	5
TAP	10	96	5
TAP	10	192	6
TAP	10	192	7
TAP	11	0	0
TAP	11	96	7
TAP	11	192	1
TAP	11	192	6
TAP	12	0	2
TAP	12	96	2
TAP	12	96	3
TAP	12	192	5
TAP	12	288	4
TAP	12	288	5
TAP	13	0	3
TAP	13	96	3
TAP	13	192	4
TAP	13	288	4
TAP	14	0	5
TAP	14	96	5
TAP	14	192	4
TAP	14	192	6
TAP	15	0	4
TAP	15	96	4
TAP	15	192	3
TAP	15	288	3
TAP	16	0	2
TAP	16	96	2
TAP	16	192	1
TAP	16	192	3
TAP	17	0	3
TAP	17	96	3
TAP	17	192	2
TAP	17	288	2
TAP	18	0	1
TAP	18	96	1
TAP	18	192	0
TAP	18	192	2
TAP	19	0	4
TAP	19	96	4
TAP	19	192	5
TAP	19	288	5
TAP	20	0	6
TAP	20	96	6
TAP	20	192	5
TAP	20	192	7
STR	20	288	4
SSR	20	288	4	96	576	0
TAP	23	0	7
TAP	23	96	6
TAP	23	192	5
TAP	23	288	4
TAP	24	0	3
TAP	24	96	2
TAP	24	192	1
BRK	24	288	0
TAP	25	0	4
TAP	25	96	4
TAP	25	192	3
TAP	25	288	3
TAP	26	0	2
TAP	26	96	2
TAP	26	192	1
TAP	26	192	3
TAP	27	0	3
TAP	27	96	3
TAP	27	192	4
TAP	27	288	4
TAP	28	0	5
TAP	28	96	5
TAP	28	192	4
TAP	28	192	6
TAP	29	0	4
TAP	29	96	4
TAP	29	192	5
TAP	29	288	5
TAP	30	0	6
TAP	30	96	6
TAP	30	192	5
TAP	30	192	7
TAP	31	0	3
TAP	31	96	3
TAP	31	192	2
TAP	31	288	2
TAP	32	0	1
TAP	32	96	1
TAP	32	192	0
TAP	32	192	2
HLD	33	0	4	192
HLD	33	192	5	192
HLD	34	0	6	192
TAP	34	192	7
HLD	35	0	3	192
HLD	35	192	2	192
HLD	36	0	1	192
TAP	36	192	0
HLD	37	0	3	96
HLD	37	0	4	96
HLD	37	192	2	96
HLD	37	192	5	96
HLD	38	0	1	96
HLD	38	0	6	96
TAP	38	192	0
TAP	38	192	7
STR	38	288	0
SCR	38	288	0	96	240	3
STR	38	288	7
SCL	38	288	7	96	240	4
TAP	40	0	2
TAP	40	0	3
TAP	40	96	2
TAP	40	96	3
TAP	40	192	4
TAP	40	192	5
TAP	40	288	4
TAP	40	288	5
HLD	41	0	3	96
HLD	41	0	4	96
BRK	41	192	1
BRK	41	192	6
TAP	42	0	0
TAP	42	0	1
TAP	42	96	0
TAP	42	96	1
TAP	42	192	6
TAP	42	192	7
TAP	42	288	6
TAP	42	288	7
TAP	43	0	0
TAP	43	0	1
TAP	43	96	0
TAP	43	96	1
BRK	43	192	2
BRK	43	192	7
TAP	44	0	5
TAP	44	96	4
TAP	44	96	5
TAP	44	192	2
TAP	44	288	2
TAP	44	288	3
TAP	45	0	5
TAP	45	96	4
TAP	45	96	6
TAP	45	192	2
TAP	45	288	1
TAP	45	288	3
TAP	46	0	6
TAP	46	0	7
TAP	46	96	6
TAP	46	96	7
TAP	46	192	0
TAP	46	192	1
TAP	46	288	0
TAP	46	288	1
TAP	47	0	6
TAP	47	0	7
TAP	47	96	6
TAP	47	96	7
BRK	47	192	0
BRK	47	192	5
TAP	48	0	2
TAP	48	96	1
TAP	48	96	3
TAP	48	192	5
TAP	48	288	4
TAP	48	288	6
TAP	49	0	7
TAP	49	96	0
TAP	49	192	1
TAP	49	192	6
TAP	50	0	3
TAP	50	96	3
TAP	50	192	4
TAP	50	288	4
TAP	51	0	1
TAP	51	96	0
TAP	51	192	7
TAP	51	288	6
TAP	52	0	4
TAP	52	0	5
TAP	52	96	4
TAP	52	96	5
TAP	52	192	2
TAP	52	192	3
TAP	52	288	2
TAP	52	288	3
TAP	53	0	3
TAP	53	0	4
TAP	53	96	3
TAP	53	96	4
BRK	53	192	1
BRK	53	192	6
HLD	54	0	3	192
HLD	54	192	4	192
HLD	55	0	2	192
TAP	55	192	3
HLD	56	0	5	192
TAP	56	192	4
HLD	57	0	1	192
TAP	57	192	2
HLD	58	0	6	192
TAP	58	192	5
HLD	59	0	1	192
TAP	59	192	0
HLD	60	0	6	192
TAP	60	192	7
HLD	61	0	2	192
HLD	61	192	3	192
HLD	62	0	4	192
TAP	62	192	5
HLD	63	0	5	192
TAP	63	192	4
HLD	64	0	2	192
TAP	64	192	3
HLD	65	0	6	192
TAP	65	192	5
HLD	66	0	1	192
TAP	66	192	2
HLD	67	0	6	192
TAP	67	192	7
HLD	68	0	1	192
TAP	68	192	0
HLD	69	0	5	192
HLD	69	192	4	192
HLD	70	0	3	192
TAP	70	192	2
STR	71	0	1
SI_	71	0	1	96	192	4
STR	72	0	5
SI_	72	0	5	96	192	0
STR	73	0	2
SI_	73	0	2	96	192	7
STR	74	0	6
SI_	74	0	6	96	192	3
HLD	75	0	2	192
HLD	75	192	3	192
HLD	76	0	4	192
HLD	76	192	5	192
STR	77	0	6
SXL	77	0	6	96	672	1
TAP	81	0	0
TAP	82	0	1
TAP	83	0	2
TAP	84	0	3
TAP	84	192	4
TAP	85	0	3
TAP	86	0	2
STR	87	0	1
SCL	87	0	1	96	192	6
BRK	88	0	0
BRK	88	0	7
BRK	88	96	0
BRK	88	96	7
BRK	88	192	1
BRK	88	192	6
TAP	89	0	0
TAP	89	0	1
TAP	89	96	0
TAP	89	96	1
TAP	89	192	6
TAP	89	192	7
TAP	89	288	6
TAP	89	288	7
TAP	90	0	0
TAP	90	0	1
TAP	90	96	6
TAP	90	96	7
BRK	90	192	0
BRK	90	192	5
TAP	91	0	4
TAP	91	96	4
TAP	91	96	5
TAP	91	192	3
TAP	91	288	2
TAP	91	288	3
TAP	92	0	5
TAP	92	96	4
TAP	92	96	6
TAP	92	192	2
TAP	92	288	1
TAP	92	288	3
TAP	93	0	6
TAP	93	0	7
TAP	93	96	6
TAP	93	96	7
TAP	93	192	0
TAP	93	192	1
TAP	93	288	0
TAP	93	288	1
TAP	94	0	6
TAP	94	0	7
TAP	94	96	0
TAP	94	96	1
BRK	94	192	2
BRK	94	192	7
TAP	95	0	2
TAP	95	96	1
TAP	95	96	3
TAP	95	192	5
TAP	95	288	4
TAP	95	288	6
TAP	96	0	7
TAP	96	96	0
TAP	96	192	1
TAP	96	192	6
TAP	97	0	3
TAP	97	96	3
TAP	97	192	4
TAP	97	288	4
TAP	98	0	1
TAP	98	96	0
TAP	98	192	7
TAP	98	288	6
TAP	99	0	4
TAP	99	0	5
TAP	99	96	3
TAP	99	96	6
TAP	99	192	2
TAP	99	192	3
TAP	99	288	1
TAP	99	288	4
TAP	100	0	2
TAP	100	0	5
TAP	100	96	1
TAP	100	96	6
BRK	100	192	0
BRK	100	192	7
TAP	101	0	1
TAP	101	0	2
TAP	101	96	1
TAP	101	96	2
TAP	101	192	5
TAP	101	192	6
TAP	101	288	5
TAP	101	288	6
TAP	102	0	3
TAP	102	0	4
TAP	102	96	3
TAP	102	96	4
BRK	102	192	0
BRK	102	192	7
TAP	103	0	1
TAP	103	96	1
TAP	103	192	0
TAP	103	192	1
TAP	103	288	2
TAP	103	288	7
TAP	104	0	6
TAP	104	96	6
TAP	104	192	6
TAP	104	192	7
TAP	104	288	0
TAP	104	288	5
TAP	105	0	4
TAP	105	96	3
TAP	105	192	2
TAP	105	192	5
TAP	105	288	2
TAP	105	288	5
TAP	106	0	3
TAP	106	96	4
TAP	106	192	2
TAP	106	192	5
TAP	106	288	1
TAP	106	288	6
TAP	107	0	7
TAP	107	96	7
TAP	107	192	6
TAP	107	192	7
TAP	107	288	6
TAP	107	288	7
TAP	108	0	0
TAP	108	96	0
TAP	108	192	0
TAP	108	192	1
TAP	108	288	0
TAP	108	288	1
TAP	109	0	2
TAP	109	96	3
TAP	109	192	4
TAP	109	192	5
TAP	109	288	2
TAP	109	288	3
TAP	110	0	3
TAP	110	0	4
TAP	110	96	2
TAP	110	96	5
TAP	110	192	1
TAP	110	192	6
TAP	110	288	0
TAP	110	288	7

T_REC_TAP	334
T_REC_BRK	23
T_REC_XTP	0
T_REC_HLD	38
T_REC_XHO	0
T_REC_STR	11
T_REC_BST	0
T_REC_XST	0
T_REC_TTP	0
T_REC_THO	0
T_REC_SLD	11
T_REC_ALL	417
T_NUM_TAP	345
T_NUM_BRK	23
T_NUM_HLD	38
T_NUM_SLD	11
T_NUM_ALL	417
T_JUDGE_TAP	368
T_JUDGE_HLD	136
T_JUDGE_SLD	11
T_JUDGE_ALL	515
TTM_EACHPAIRS	113
TTM_SCR_TAP	172500
TTM_SCR_BRK	59800
TTM_SCR_HLD	38000
TTM_SCR_SLD	16500
TTM_SCR_ALL	286800
TTM_SCR_S	276000
TTM_SCR_SS	284500
TTM_RAT_ACV	10080

