VERSION	0.00.00	1.03.00
FES_MODE	0
BPM_DEF	190.000	190.000	190.000	180.000
MET_DEF	4	4
RESOLUTION	384
CLK_DEF	384
COMPATIBLE_CODE	MA2

BPM	0	0	190.000
BPM	54	0	180.000
BPM	80	0	190.000
MET	0	0	4	4

TAP	5	0	0
TAP	6	0	1
TAP	7	0	2
TAP	8	0	3
TAP	9	0	4
TAP	10	0	5
TAP	11	0	6
TAP	12	0	7
TAP	13	0	0
TAP	13	192	0
TAP	14	0	0
TAP	15	0	1
TAP	15	192	1
TAP	16	0	1
TAP	17	0	2
TAP	17	192	2
TAP	18	0	2
TAP	19	0	3
TAP	19	192	3
TAP	20	0	3
STR	21	0	4
SI_	21	0	4	96	288	7
STR	23	0	0
SI_	23	0	0	96	288	3
TAP	25	0	4
TAP	25	192	4
TAP	26	0	4
TAP	27	0	5
TAP	27	192	5
TAP	28	0	5
TAP	29	0	6
TAP	29	192	6
TAP	30	0	6
TAP	31	0	7
TAP	31	192	7
TAP	32	0	7
TAP	33	0	7
TAP	33	192	7
TAP	34	0	6
TAP	34	192	6
TAP	35	0	5
TAP	35	192	5
TAP	36	0	4
TAP	36	192	4
TAP	37	0	3
TAP	37	192	3
TAP	38	0	2
TAP	38	192	2
TAP	39	0	1
TAP	39	192	1
TAP	40	0	0
TAP	40	192	7
TAP	41	0	0
TAP	41	96	7
BRK	41	192	0
BRK	41	192	7
TAP	42	0	7
TAP	42	96	7
TAP	42	192	7
TAP	43	0	6
TAP	43	96	6
TAP	43	192	6
TAP	44	0	5
TAP	44	96	5
TAP	44	192	5
TAP	45	0	4
TAP	45	96	4
TAP	45	192	4
TAP	46	0	3
TAP	46	96	3
TAP	46	192	3
TAP	47	0	2
TAP	47	96	2
TAP	47	192	2
TAP	48	0	1
TAP	48	96	1
TAP	48	192	1
TAP	49	0	0
TAP	49	96	0
TAP	49	192	0
TAP	50	0	7
TAP	50	96	7
TAP	50	192	7
TAP	51	0	0
TAP	51	96	0
TAP	51	192	0
TAP	52	0	1
TAP	52	0	6
TAP	52	96	1
TAP	52	96	6
TAP	52	192	1
TAP	52	192	6
TAP	53	0	0
TAP	53	0	7
TAP	53	96	0
TAP	53	96	7
BRK	53	192	0
BRK	53	192	7
TAP	55	0	0
TAP	55	192	1
TAP	56	0	2
TAP	56	192	3
TAP	57	0	4
TAP	57	192	5
HLD	58	0	6	192
TAP	59	0	7
TAP	59	192	6
TAP	60	0	5
TAP	60	192	4
TAP	61	0	3
TAP	61	192	2
HLD	62	0	1	192
TAP	63	0	0
TAP	63	192	1
TAP	64	0	2
TAP	64	192	3
TAP	65	0	4
TAP	65	192	5
TAP	66	0	6
TAP	66	192	0
TAP	66	192	7
TAP	67	0	7
TAP	67	192	6
TAP	68	0	5
TAP	68	192	4
TAP	69	0	3
TAP	69	192	2
TAP	70	0	1
TAP	70	192	0
TAP	70	192	7
HLD	71	0	1	192
HLD	72	0	2	192
HLD	73	0	3	192
HLD	74	0	4	192
HLD	75	0	5	192
HLD	76	0	6	192
HLD	77	0	0	768
HLD	77	0	7	768
TAP	81	0	0
TAP	81	0	7
TAP	82	0	1
TAP	82	0	6
TAP	83	0	2
TAP	83	0	5
TAP	84	0	3
TAP	84	0	4
TAP	84	192	3
TAP	84	192	4
TAP	85	0	3
TAP	85	0	4
TAP	86	0	2
TAP	86	0	5
TAP	87	0	1
TAP	87	0	6
TAP	88	0	0
TAP	88	96	0
BRK	88	192	0
TAP	89	0	7
TAP	89	96	7
TAP	89	192	6
TAP	89	288	6
TAP	90	0	5
TAP	90	96	5
TAP	90	192	3
TAP	90	192	4
TAP	91	0	3
TAP	91	96	3
TAP	91	192	2
TAP	91	288	2
TAP	92	0	1
TAP	92	96	1
TAP	92	192	0
TAP	92	192	7
TAP	93	0	0
TAP	93	96	0
TAP	93	192	1
TAP	93	288	1
TAP	94	0	2
TAP	94	96	2
TAP	94	192	3
TAP	94	192	4
TAP	95	0	4
TAP	95	96	4
TAP	95	192	5
TAP	95	288	5
TAP	96	0	6
TAP	96	96	6
TAP	96	192	0
TAP	96	192	7
TAP	97	0	1
TAP	97	96	1
TAP	97	192	2
TAP	97	288	2
TAP	98	0	3
TAP	98	96	3
TAP	98	192	4
TAP	98	288	4
TAP	99	0	5
TAP	99	96	5
TAP	99	192	6
TAP	99	288	6
TAP	100	0	0
TAP	100	0	7
TAP	100	96	0
TAP	100	96	7
BRK	100	192	0
BRK	100	192	7
TAP	101	0	0
TAP	101	96	0
TAP	101	192	7
TAP	101	288	7
TAP	102	0	0
TAP	102	0	7
TAP	102	96	0
TAP	102	96	7
BRK	102	192	1
BRK	102	192	6
TAP	103	0	7
TAP	103	96	7
TAP	103	192	6
TAP	103	288	6
TAP	104	0	5
TAP	104	96	5
TAP	104	192	4
TAP	104	288	4
TAP	105	0	3
TAP	105	96	3
TAP	105	192	2
TAP	105	288	2
TAP	106	0	1
TAP	106	96	1
TAP	106	192	0
TAP	106	192	7
TAP	107	0	0
TAP	107	96	0
TAP	107	192	1
TAP	107	288	1
TAP	108	0	2
TAP	108	96	2
TAP	108	192	3
TAP	108	288	3
TAP	109	0	4
TAP	109	96	4
TAP	109	192	5
TAP	109	288	5
TAP	110	0	6
TAP	110	96	6
TAP	110	192	0
TAP	110	192	7
TAP	110	288	0
TAP	110	288	7

T_REC_TAP	228
T_REC_BRK	9
T_REC_XTP	0
T_REC_HLD	10
T_REC_XHO	0
T_REC_STR	2
T_REC_BST	0
T_REC_XST	0
T_REC_TTP	0
T_REC_THO	0
T_REC_SLD	2
T_REC_ALL	251
T_NUM_TAP	230
T_NUM_BRK	9
T_NUM_HLD	10
T_NUM_SLD	2
T_NUM_ALL	251
T_JUDGE_TAP	239
T_JUDGE_HLD	64
T_JUDGE_SLD	2
T_JUDGE_ALL	305
TTM_EACHPAIRS	31
TTM_SCR_TAP	115000
TTM_SCR_BRK	23400
TTM_SCR_HLD	10000
TTM_SCR_SLD	3000
TTM_SCR_ALL	151400
TTM_SCR_S	146000
TTM_SCR_SS	150500
TTM_RAT_ACV	10059

