VERSION	0.00.00	1.03.00
FES_MODE	0
BPM_DEF	172.000	172.000	172.000	172.000
MET_DEF	4	4
RESOLUTION	384
CLK_DEF	384
COMPATIBLE_CODE	MA2

BPM	0	0	172.000
MET	0	0	4	4

TAP	2	0	0
TAP	2	0	4
TAP	2	72	3
TAP	2	72	7
STR	2	144	0
SV_	2	144	0	96	48	2
STR	2	144	4
SV_	2	144	4	96	48	6
STR	2	336	3
SV_	2	336	3	96	48	1
STR	2	336	7
SV_	2	336	7	96	48	5
TAP	3	144	0
TAP	3	168	6
TAP	3	192	2
TAP	3	216	4
TAP	3	240	3
TAP	3	264	5
TAP	3	288	1
TAP	3	312	7
TAP	4	0	3
TAP	4	0	7
TAP	4	72	0
TAP	4	72	4
STR	4	144	3
SV_	4	144	3	96	48	1
STR	4	144	7
SV_	4	144	7	96	48	5
STR	4	336	0
SV_	4	336	0	96	48	2
STR	4	336	4
SV_	4	336	4	96	48	6
TAP	5	144	5
TAP	5	168	3
TAP	5	192	7
TAP	5	216	1
TAP	5	240	6
TAP	5	264	0
TAP	5	288	4
TAP	5	312	2
TAP	5	336	3
TAP	6	0	1
TAP	6	0	5
TAP	6	72	2
TAP	6	72	6
STR	6	144	1
SV_	6	144	1	96	48	3
STR	6	144	5
SV_	6	144	5	96	48	7
STR	6	336	2
SV_	6	336	2	96	48	0
STR	6	336	6
SV_	6	336	6	96	48	4
TAP	7	144	1
TAP	7	168	3
TAP	7	192	7
TAP	7	216	5
TAP	7	240	4
TAP	7	264	6
TAP	7	288	2
TAP	7	312	0
TAP	7	336	1
TAP	8	48	3
TAP	8	48	7
TAP	8	96	1
TAP	8	96	5
TAP	8	192	0
TAP	8	192	4
TAP	8	240	2
TAP	8	240	6
TAP	8	336	1
TAP	8	336	5
TAP	9	48	4
TAP	9	96	4
TAP	9	120	4
TAP	9	144	4
STR	9	192	4
SI_	9	192	4	96	48	0
TAP	9	216	4
TAP	9	240	4
BRK	9	288	4
HLD	10	0	0	48
HLD	10	0	4	48
HLD	10	96	1	48
HLD	10	96	5	48
HLD	10	192	0	48
HLD	10	192	4	48
HLD	10	288	1	48
HLD	10	288	5	48
HLD	11	0	3	48
HLD	11	0	7	48
HLD	11	96	2	48
HLD	11	96	6	48
HLD	11	192	3	48
HLD	11	192	7	48
STR	11	288	2
SXR	11	288	2	96	192	4
STR	11	288	6
SXR	11	288	6	96	192	0
TAP	12	0	2
TAP	12	0	6
TAP	12	288	3
TAP	12	288	7
TAP	12	336	2
TAP	12	336	6
TAP	13	0	1
TAP	13	0	5
STR	13	48	0
SLR	13	48	0	96	96	4
STR	13	48	4
SLR	13	48	4	96	96	0
STR	13	144	0
SV_	13	144	0	96	96	6
STR	13	144	4
SV_	13	144	4	96	96	2
HLD	14	0	3	48
HLD	14	0	7	48
HLD	14	96	2	48
HLD	14	96	6	48
HLD	14	192	3	48
HLD	14	192	7	48
HLD	14	288	2	48
HLD	14	288	6	48
HLD	15	0	0	48
HLD	15	0	4	48
HLD	15	96	1	48
HLD	15	96	5	48
HLD	15	192	0	48
HLD	15	192	4	48
HLD	15	288	1	48
HLD	15	288	5	48
STR	16	48	2
SCL	16	48	2	96	48	0
STR	16	48	6
SCL	16	48	6	96	48	4
TAP	16	96	2
TAP	16	96	6
TAP	16	144	2
TAP	16	144	6
STR	16	240	1
SCR	16	240	1	96	48	3
STR	16	240	5
SCR	16	240	5	96	48	7
TAP	16	288	1
TAP	16	288	5
TAP	16	336	1
TAP	16	336	5
TAP	17	48	2
TAP	17	48	6
TAP	17	96	1
TAP	17	96	5
TAP	17	144	2
TAP	17	144	6
BRK	17	192	0
BRK	17	192	4
BRK	17	288	3
BRK	17	288	7
TAP	18	0	1
TAP	18	0	5
TAP	18	48	3
TAP	18	96	2
TAP	18	96	6
TAP	18	144	4
TAP	18	192	1
TAP	18	192	5
TAP	18	240	3
TAP	18	288	2
TAP	18	288	6
TAP	18	336	5
TAP	19	0	0
TAP	19	0	4
TAP	19	48	2
TAP	19	96	3
TAP	19	96	7
TAP	19	144	5
TAP	19	192	0
TAP	19	192	4
TAP	19	240	2
STR	19	288	3
SXR	19	288	3	96	192	0
STR	19	288	7
SXR	19	288	7	96	192	4
TAP	20	0	3
TAP	20	0	7
TAP	20	288	0
TAP	20	288	4
TAP	20	336	1
TAP	20	336	5
TAP	21	0	2
TAP	21	0	6
STR	21	48	3
SLL	21	48	3	96	96	7
STR	21	48	7
SLL	21	48	7	96	96	3
STR	21	144	3
SV_	21	144	3	96	96	5
STR	21	144	7
SV_	21	144	7	96	96	1
TAP	22	0	2
TAP	22	0	6
TAP	22	48	4
TAP	22	96	1
TAP	22	96	5
TAP	22	144	3
TAP	22	192	2
TAP	22	192	6
TAP	22	240	4
TAP	22	288	1
TAP	22	288	5
TAP	22	336	2
TAP	23	0	3
TAP	23	0	7
TAP	23	48	5
TAP	23	96	0
TAP	23	96	4
TAP	23	144	2
TAP	23	192	3
TAP	23	192	7
TAP	23	240	5
TAP	23	288	0
TAP	23	288	4
TAP	23	336	2
STR	24	48	1
SCR	24	48	1	96	48	3
STR	24	48	5
SCR	24	48	5	96	48	7
TAP	24	96	1
TAP	24	96	5
TAP	24	144	1
TAP	24	144	5
STR	24	240	2
SCL	24	240	2	96	48	0
STR	24	240	6
SCL	24	240	6	96	48	4
TAP	24	288	2
TAP	24	288	6
TAP	24	336	2
TAP	24	336	6
TAP	25	48	1
TAP	25	48	5
TAP	25	96	2
TAP	25	96	6
TAP	25	144	1
TAP	25	144	5
BRK	25	192	3
BRK	25	192	7
BRK	25	288	0
BRK	25	288	4
HLD	26	0	1	48
HLD	26	0	5	48
HLD	26	96	3	48
HLD	26	96	7	48
HLD	26	192	2	48
HLD	26	192	6	48
HLD	26	288	0	48
HLD	26	288	4	48
HLD	27	0	1	48
HLD	27	0	5	48
HLD	27	96	3	48
HLD	27	96	7	48
HLD	27	192	2	48
HLD	27	192	6	48
STR	27	288	0
SXL	27	288	0	96	192	3
STR	27	288	4
SXL	27	288	4	96	192	7
TAP	28	0	0
TAP	28	0	4
TAP	28	288	3
TAP	28	288	7
TAP	28	336	2
TAP	28	336	6
TAP	29	0	1
TAP	29	0	5
STR	29	48	0
SLR	29	48	0	96	96	4
STR	29	48	4
SLR	29	48	4	96	96	0
STR	29	144	0
SV_	29	144	0	96	96	6
STR	29	144	4
SV_	29	144	4	96	96	2
TAP	30	0	3
TAP	30	0	7
TAP	30	48	3
TAP	30	48	7
TAP	30	96	6
TAP	30	120	2
TAP	30	144	5
TAP	30	192	0
TAP	30	192	4
TAP	30	240	0
TAP	30	240	4
TAP	30	288	1
TAP	30	312	5
TAP	30	336	2
TAP	31	0	3
TAP	31	0	7
TAP	31	48	3
TAP	31	48	7
TAP	31	96	6
TAP	31	120	2
TAP	31	144	5
TAP	31	168	1
TAP	31	192	0
TAP	31	192	4
TAP	31	240	0
TAP	31	240	4
TAP	31	288	1
TAP	31	312	5
TAP	31	336	2
TAP	31	360	6
TAP	32	0	3
TAP	32	24	7
TAP	32	48	2
TAP	32	72	6
TAP	32	96	3
TAP	32	120	7
TAP	32	144	2
TAP	32	168	6
TAP	32	192	0
TAP	32	216	4
TAP	32	240	1
TAP	32	264	5
TAP	32	288	0
TAP	32	312	4
TAP	32	336	1
TAP	32	360	5
TAP	33	0	2
TAP	33	24	6
TAP	33	48	3
TAP	33	72	7
TAP	33	96	2
TAP	33	120	6
TAP	33	144	1
TAP	33	168	5
STR	33	192	0
SI_	33	192	0	96	24	4
TAP	33	204	7
TAP	33	216	6
TAP	33	228	5
TAP	33	240	4
TAP	33	252	3
TAP	33	264	2
TAP	33	276	1
BRK	33	288	0
TAP	34	0	2
TAP	34	0	6
TAP	34	48	1
TAP	34	48	5
TAP	34	72	1
TAP	34	72	5
HLD	34	144	0	24
HLD	34	144	4	24
TAP	34	240	2
TAP	34	240	6
TAP	34	264	2
TAP	34	264	6
HLD	34	336	3	24
HLD	34	336	7	24
TAP	35	48	0
TAP	35	48	4
TAP	35	72	0
TAP	35	72	4
HLD	35	144	2	24
HLD	35	144	6	24
TAP	35	240	3
TAP	35	240	7
TAP	35	264	3
TAP	35	264	7
TAP	35	336	1
TAP	35	336	5
TAP	36	0	2
TAP	36	24	3
TAP	36	48	4
TAP	36	72	6
TAP	36	96	7
TAP	36	120	0
TAP	36	144	3
TAP	36	168	2
TAP	36	192	1
TAP	36	216	7
TAP	36	240	6
TAP	36	264	5
TAP	36	288	0
TAP	36	312	1
TAP	36	336	2
TAP	36	360	4
TAP	37	0	5
TAP	37	24	6
TAP	37	48	1
TAP	37	72	0
TAP	37	96	7
TAP	37	120	5
TAP	37	144	4
TAP	37	168	3
TAP	37	192	6
TAP	37	216	7
TAP	37	240	0
TAP	37	264	1
BRK	37	288	2
BRK	37	288	6
TAP	38	0	1
TAP	38	0	5
TAP	38	48	2
TAP	38	48	6
TAP	38	72	2
TAP	38	72	6
HLD	38	144	3	24
HLD	38	144	7	24
TAP	38	240	1
TAP	38	240	5
TAP	38	264	1
TAP	38	264	5
HLD	38	336	0	24
HLD	38	336	4	24
TAP	39	48	3
TAP	39	48	7
TAP	39	72	3
TAP	39	72	7
HLD	39	144	1	24
HLD	39	144	5	24
TAP	39	240	0
TAP	39	240	4
TAP	39	264	0
TAP	39	264	4
TAP	39	336	2
TAP	39	336	6
TAP	40	0	5
TAP	40	24	4
TAP	40	48	3
TAP	40	72	1
TAP	40	96	0
TAP	40	120	7
TAP	40	144	4
TAP	40	168	5
TAP	40	192	6
TAP	40	216	0
TAP	40	240	1
TAP	40	264	2
TAP	40	288	7
TAP	40	312	6
TAP	40	336	5
TAP	40	360	3
TAP	41	0	2
TAP	41	24	1
TAP	41	48	6
TAP	41	72	7
TAP	41	96	0
TAP	41	120	2
TAP	41	144	3
TAP	41	168	4
TAP	41	192	1
TAP	41	216	0
TAP	41	240	7
TAP	41	264	6
BRK	41	288	1
BRK	41	288	5
TAP	42	0	2
TAP	42	0	6
TAP	42	48	0
TAP	42	48	4
TAP	42	72	0
TAP	42	72	4
HLD	42	144	2	24
HLD	42	144	6	24
TAP	42	240	3
TAP	42	240	7
TAP	42	264	3
TAP	42	264	7
HLD	42	336	1	24
HLD	42	336	5	24
TAP	43	48	2
TAP	43	48	6
TAP	43	72	2
TAP	43	72	6
HLD	43	144	0	24
HLD	43	144	4	24
TAP	43	240	1
TAP	43	240	5
TAP	43	264	1
TAP	43	264	5
TAP	43	336	3
TAP	43	336	7
TAP	44	0	1
TAP	44	24	0
TAP	44	48	7
TAP	44	72	5
TAP	44	96	4
TAP	44	120	3
TAP	44	144	0
TAP	44	168	1
TAP	44	192	2
TAP	44	216	4
TAP	44	240	5
TAP	44	264	6
TAP	44	288	3
TAP	44	312	2
TAP	44	336	1
TAP	44	360	7
TAP	45	0	6
TAP	45	24	5
TAP	45	48	2
TAP	45	72	3
TAP	45	96	4
TAP	45	120	6
TAP	45	144	7
TAP	45	168	0
TAP	45	192	5
TAP	45	216	4
TAP	45	240	3
TAP	45	264	2
BRK	45	288	1
BRK	45	288	5
TAP	46	0	1
TAP	46	0	5
TAP	46	48	3
TAP	46	48	7
TAP	46	72	3
TAP	46	72	7
HLD	46	144	1	24
HLD	46	144	5	24
TAP	46	240	0
TAP	46	240	4
TAP	46	264	0
TAP	46	264	4
HLD	46	336	2	24
HLD	46	336	6	24
TAP	47	48	1
TAP	47	48	5
TAP	47	72	1
TAP	47	72	5
HLD	47	144	3	24
HLD	47	144	7	24
TAP	47	240	2
TAP	47	240	6
TAP	47	264	2
TAP	47	264	6
TAP	47	336	0
TAP	47	336	4
TAP	48	0	6
TAP	48	24	7
TAP	48	48	0
TAP	48	72	2
TAP	48	96	3
TAP	48	120	4
TAP	48	144	7
TAP	48	168	6
TAP	48	192	5
TAP	48	216	3
TAP	48	240	2
TAP	48	264	1
TAP	48	288	4
TAP	48	312	5
TAP	48	336	6
TAP	48	360	0
TAP	49	0	1
TAP	49	24	2
TAP	49	48	5
TAP	49	72	4
TAP	49	96	3
TAP	49	120	1
TAP	49	144	0
TAP	49	168	7
TAP	49	192	2
TAP	49	216	3
TAP	49	240	4
TAP	49	264	5
BRK	49	288	2
BRK	49	288	6
STR	50	0	3
SCL	50	0	3	96	384	4
STR	51	0	4
SCL	51	0	4	96	384	6
STR	52	0	6
SCL	52	0	6	96	384	1
STR	53	0	1
SCL	53	0	1	96	240	6
STR	54	0	4
SCR	54	0	4	96	384	3
STR	55	0	3
SCR	55	0	3	96	384	1
STR	56	0	1
SCR	56	0	1	96	384	6
STR	57	0	6
SCR	57	0	6	96	192	1
STR	58	0	3
SLL	58	0	3	96	624	4
STR	58	0	7
SLL	58	0	7	96	624	0
STR	60	0	0
SLR	60	0	0	96	624	7
STR	60	0	4
SLR	60	0	4	96	624	3
TAP	62	0	0
TAP	62	96	1
TAP	62	192	2
TAP	62	288	3
TAP	63	0	4
TAP	63	96	5
TAP	63	192	6
TAP	63	288	7
TAP	64	0	0
TAP	64	48	7
TAP	64	96	6
TAP	64	144	5
TAP	64	192	4
TAP	64	240	3
TAP	64	288	2
TAP	64	336	1
TAP	65	0	0
TAP	65	24	1
TAP	65	48	2
TAP	65	72	3
TAP	65	96	4
TAP	65	120	5
TAP	65	144	6
TAP	65	168	7
STR	65	192	0
SI_	65	192	0	96	24	4
TAP	65	204	7
TAP	65	216	6
TAP	65	228	5
TAP	65	240	4
TAP	65	252	3
TAP	65	264	2
TAP	65	276	1
BRK	65	288	0
TAP	66	0	2
TAP	66	0	6
TAP	66	48	3
TAP	66	48	5
TAP	66	72	3
TAP	66	72	5
HLD	66	144	1	24
HLD	66	144	7	24
TAP	66	240	2
TAP	66	240	6
TAP	66	264	2
TAP	66	264	6
HLD	66	336	3	24
HLD	66	336	5	24
TAP	67	48	2
TAP	67	48	6
TAP	67	72	2
TAP	67	72	6
HLD	67	144	1	24
HLD	67	144	7	24
TAP	67	240	3
TAP	67	240	5
TAP	67	288	1
TAP	67	288	7
TAP	67	336	2
TAP	67	336	6
TAP	68	0	1
TAP	68	0	7
TAP	68	48	3
TAP	68	48	5
TAP	68	96	1
TAP	68	96	7
TAP	68	144	2
TAP	68	144	6
TAP	68	192	0
TAP	68	192	4
TAP	68	240	2
TAP	68	240	6
TAP	68	288	1
TAP	68	288	7
TAP	68	336	3
TAP	68	336	5
TAP	69	0	1
TAP	69	0	7
TAP	69	48	2
TAP	69	48	6
STR	69	96	1
SI_	69	96	1	96	48	5
STR	69	96	7
SI_	69	96	7	96	48	3
STR	69	144	3
SXR	69	144	3	96	96	4
STR	69	144	5
SXL	69	144	5	96	96	4
TAP	70	0	1
TAP	70	0	5
TAP	70	48	0
TAP	70	48	6
TAP	70	72	0
TAP	70	72	6
HLD	70	144	2	24
HLD	70	144	4	24
TAP	70	240	1
TAP	70	240	5
TAP	70	264	1
TAP	70	264	5
HLD	70	336	0	24
HLD	70	336	6	24
TAP	71	48	1
TAP	71	48	5
TAP	71	72	1
TAP	71	72	5
HLD	71	144	2	24
HLD	71	144	4	24
TAP	71	240	0
TAP	71	240	6
TAP	71	288	2
TAP	71	288	4
TAP	71	336	1
TAP	71	336	5
TAP	72	0	2
TAP	72	0	4
TAP	72	48	0
TAP	72	48	6
TAP	72	96	2
TAP	72	96	4
TAP	72	144	1
TAP	72	144	5
TAP	72	192	3
TAP	72	192	7
TAP	72	240	1
TAP	72	240	5
TAP	72	288	2
TAP	72	288	4
TAP	72	336	0
TAP	72	336	6
TAP	73	0	2
TAP	73	0	4
TAP	73	48	1
TAP	73	48	5
STR	73	96	2
SI_	73	96	2	96	48	6
STR	73	96	4
SI_	73	96	4	96	48	0
STR	73	144	0
SXL	73	144	0	96	96	7
STR	73	144	6
SXR	73	144	6	96	96	7
TAP	74	0	0
TAP	74	0	5
TAP	74	48	6
TAP	74	48	7
TAP	74	72	6
TAP	74	72	7
HLD	74	144	1	24
HLD	74	144	4	24
TAP	74	240	0
TAP	74	240	5
TAP	74	264	0
TAP	74	264	5
HLD	74	336	2	24
HLD	74	336	3	24
TAP	75	48	0
TAP	75	48	1
TAP	75	72	0
TAP	75	72	1
HLD	75	144	3	24
HLD	75	144	6	24
TAP	75	240	2
TAP	75	240	5
TAP	75	288	1
TAP	75	288	6
TAP	75	336	3
TAP	75	336	4
TAP	76	0	0
TAP	76	0	7
TAP	76	48	2
TAP	76	48	5
TAP	76	96	1
TAP	76	96	6
TAP	76	144	3
TAP	76	144	4
TAP	76	192	1
TAP	76	192	6
TAP	76	240	2
TAP	76	240	5
TAP	76	288	0
TAP	76	288	7
TAP	76	336	3
TAP	76	336	4
STR	77	0	1
SI_	77	0	1	96	48	5
STR	77	0	6
SI_	77	0	6	96	48	2
STR	77	48	2
SLL	77	48	2	96	96	4
STR	77	48	5
SLR	77	48	5	96	96	3
TAP	78	0	1
TAP	78	0	2
TAP	78	48	5
TAP	78	48	6
TAP	78	72	5
TAP	78	72	6
HLD	78	144	4	24
HLD	78	144	7	24
TAP	78	240	1
TAP	78	240	2
TAP	78	264	1
TAP	78	264	2
HLD	78	336	0	24
HLD	78	336	3	24
TAP	79	48	5
TAP	79	48	6
TAP	79	72	5
TAP	79	72	6
HLD	79	144	4	24
HLD	79	144	7	24
TAP	79	240	2
TAP	79	240	5
TAP	79	288	3
TAP	79	288	4
TAP	79	336	0
TAP	79	336	7
TAP	80	0	2
TAP	80	0	5
TAP	80	48	1
TAP	80	48	6
TAP	80	96	3
TAP	80	96	4
TAP	80	144	3
TAP	80	144	4
TAP	80	192	1
TAP	80	192	6
TAP	80	240	2
TAP	80	240	5
TAP	80	288	0
TAP	80	288	7
TAP	80	336	3
TAP	80	336	4
STR	81	0	2
SXR	81	0	2	96	192	4
STR	81	0	5
SXL	81	0	5	96	192	3
HLD	82	0	1	96
HLD	82	0	5	96
TAP	82	144	1
TAP	82	144	5
TAP	82	168	2
TAP	82	168	6
HLD	82	192	3	96
HLD	82	192	7	96
HLD	83	0	2	96
HLD	83	0	6	96
TAP	83	144	2
TAP	83	144	6
TAP	83	168	1
TAP	83	168	5
HLD	83	192	0	96
HLD	83	192	4	96
HLD	84	0	1	96
HLD	84	0	5	96
TAP	84	144	1
TAP	84	144	5
TAP	84	168	2
TAP	84	168	6
HLD	84	192	3	96
HLD	84	192	7	96
TAP	85	0	5
TAP	85	24	7
TAP	85	48	3
TAP	85	72	1
TAP	85	96	0
TAP	85	120	2
TAP	85	144	6
TAP	85	168	4
HLD	85	192	5	96
HLD	86	0	2	96
HLD	86	0	6	96
TAP	86	144	2
TAP	86	144	6
TAP	86	168	3
TAP	86	168	7
HLD	86	192	0	96
HLD	86	192	4	96
HLD	87	0	1	96
HLD	87	0	5	96
TAP	87	144	1
TAP	87	144	5
TAP	87	168	0
TAP	87	168	4
HLD	87	192	3	96
HLD	87	192	7	96
TAP	88	0	2
TAP	88	24	0
TAP	88	48	4
TAP	88	72	6
TAP	88	96	1
TAP	88	120	3
TAP	88	144	7
TAP	88	168	5
TAP	88	192	4
TAP	88	216	6
TAP	88	240	2
TAP	88	264	0
TAP	88	288	7
TAP	88	312	5
TAP	88	336	1
TAP	88	360	3
TAP	89	0	2
TAP	89	48	1
TAP	89	48	5
TAP	89	72	1
TAP	89	72	5
TAP	89	144	3
TAP	89	144	7
TAP	89	168	3
TAP	89	168	7
TAP	89	240	2
TAP	89	240	6
TAP	89	264	2
TAP	89	264	6
TAP	89	336	0
TAP	89	336	4
TAP	90	0	1
TAP	90	0	5
TAP	90	24	2
TAP	90	24	6
TAP	90	48	3
TAP	90	48	7
BRK	90	72	0
BRK	90	72	4
TAP	90	144	2
TAP	90	144	6
TAP	90	168	1
TAP	90	168	5
TAP	90	192	0
TAP	90	192	4
BRK	90	216	3
BRK	90	216	7
TAP	90	288	1
TAP	90	288	5
TAP	90	312	2
TAP	90	312	6
TAP	90	336	3
TAP	90	336	7
TAP	90	360	0
TAP	90	360	4
TAP	91	0	3
TAP	91	0	7
TAP	91	24	2
TAP	91	24	6
TAP	91	48	1
TAP	91	48	5
TAP	91	72	0
TAP	91	72	4
TAP	91	96	3
TAP	91	96	7
TAP	91	112	0
TAP	91	112	4
TAP	91	128	1
TAP	91	128	5
TAP	91	144	2
TAP	91	144	6
TAP	91	160	3
TAP	91	160	7
HLD	91	176	0	496
HLD	91	176	4	496

T_REC_TAP	684
T_REC_BRK	23
T_REC_XTP	0
T_REC_HLD	115
T_REC_XHO	0
T_REC_STR	67
T_REC_BST	0
T_REC_XST	0
T_REC_TTP	0
T_REC_THO	0
T_REC_SLD	67
T_REC_ALL	956
T_NUM_TAP	751
T_NUM_BRK	23
T_NUM_HLD	115
T_NUM_SLD	67
T_NUM_ALL	956
T_JUDGE_TAP	774
T_JUDGE_HLD	156
T_JUDGE_SLD	67
T_JUDGE_ALL	997
TTM_EACHPAIRS	307
TTM_SCR_TAP	375500
TTM_SCR_BRK	59800
TTM_SCR_HLD	115000
TTM_SCR_SLD	100500
TTM_SCR_ALL	650800
TTM_SCR_S	629050
TTM_SCR_SS	648500
TTM_RAT_ACV	10035

