VERSION	0.00.00	1.03.00
FES_MODE	0
BPM_DEF	172.000	172.000	172.000	172.000
MET_DEF	4	4
RESOLUTION	384
CLK_DEF	384
COMPATIBLE_CODE	MA2

BPM	0	0	172.000
MET	0	0	4	4

TAP	2	0	1
TAP	2	0	5
TAP	2	72	2
TAP	2	72	6
STR	2	144	3
SLL	2	144	3	96	96	7
STR	2	144	7
SLL	2	144	7	96	96	3
TAP	2	192	3
TAP	2	192	7
STR	3	0	0
SLR	3	0	0	96	96	4
STR	3	0	4
SLR	3	0	4	96	96	0
TAP	4	0	2
TAP	4	0	6
TAP	4	72	1
TAP	4	72	5
STR	4	144	0
SLR	4	144	0	96	96	4
STR	4	144	4
SLR	4	144	4	96	96	0
TAP	4	192	0
TAP	4	192	4
STR	5	0	3
SCL	5	0	3	96	240	4
TAP	5	0	7
TAP	6	0	1
TAP	6	0	5
TAP	6	72	2
TAP	6	72	6
STR	6	144	3
SLL	6	144	3	96	96	7
STR	6	144	7
SLL	6	144	7	96	96	3
TAP	6	192	3
TAP	6	192	7
TAP	7	0	0
STR	7	0	4
SCR	7	0	4	96	240	3
TAP	8	0	4
TAP	8	48	3
TAP	8	96	2
TAP	8	96	5
TAP	8	192	0
TAP	8	192	7
STR	8	240	0
SXL	8	240	0	96	240	3
STR	8	240	7
SXR	8	240	7	96	240	4
TAP	9	288	1
TAP	9	288	6
TAP	10	0	0
TAP	10	96	4
TAP	10	96	5
TAP	10	192	7
TAP	10	288	2
TAP	10	288	3
STR	10	336	2
SCL	10	336	2	96	240	5
TAP	10	336	3
TAP	11	96	4
TAP	11	192	3
STR	11	288	2
SXL	11	288	2	96	192	6
SXR	11	288	2	96	192	6
TAP	12	288	0
TAP	12	288	4
TAP	12	336	1
TAP	12	336	5
TAP	13	0	2
TAP	13	0	6
STR	13	48	3
SCL	13	48	3	96	48	0
STR	13	48	7
SCL	13	48	7	96	48	4
TAP	13	240	3
TAP	13	240	7
STR	13	288	0
SCR	13	288	0	96	48	3
STR	13	288	4
SCR	13	288	4	96	48	7
TAP	14	96	0
TAP	14	96	4
TAP	14	192	1
TAP	14	192	2
TAP	14	288	3
TAP	14	288	7
TAP	15	0	5
TAP	15	0	6
STR	15	96	0
SXL	15	96	0	96	144	7
STR	15	96	4
SXL	15	96	4	96	144	3
STR	16	48	3
SI_	16	48	3	96	48	0
TAP	16	96	2
TAP	16	144	1
STR	16	240	7
SI_	16	240	7	96	48	4
TAP	16	288	6
TAP	16	336	5
STR	17	48	3
SI_	17	48	3	96	48	7
TAP	17	96	2
TAP	17	144	1
STR	17	192	0
SI_	17	192	0	96	48	4
TAP	17	288	5
TAP	18	0	7
TAP	18	96	2
TAP	18	96	3
TAP	18	192	0
TAP	18	288	4
TAP	18	288	5
TAP	18	336	4
STR	18	336	5
SCR	18	336	5	96	240	2
TAP	19	96	3
TAP	19	192	4
STR	19	288	5
SXL	19	288	5	96	192	1
SXR	19	288	5	96	192	1
TAP	20	288	3
TAP	20	288	7
TAP	20	336	2
TAP	20	336	6
TAP	21	0	1
TAP	21	0	5
STR	21	48	0
SCR	21	48	0	96	48	3
STR	21	48	4
SCR	21	48	4	96	48	7
TAP	21	240	0
TAP	21	240	4
STR	21	288	3
SCL	21	288	3	96	48	0
STR	21	288	7
SCL	21	288	7	96	48	4
TAP	22	96	3
TAP	22	96	7
TAP	22	192	5
TAP	22	192	6
TAP	22	288	0
TAP	22	288	4
TAP	23	0	1
TAP	23	0	2
STR	23	96	3
SXR	23	96	3	96	144	4
STR	23	96	7
SXR	23	96	7	96	144	0
STR	24	48	4
SI_	24	48	4	96	48	7
TAP	24	96	5
TAP	24	144	6
STR	24	240	0
SI_	24	240	0	96	48	3
TAP	24	288	1
TAP	24	336	2
STR	25	48	4
SI_	25	48	4	96	48	0
TAP	25	96	5
TAP	25	144	6
STR	25	192	7
SI_	25	192	7	96	48	3
TAP	25	288	2
TAP	26	0	0
TAP	26	0	1
TAP	26	96	4
TAP	26	96	5
TAP	26	144	4
TAP	26	144	5
TAP	26	192	6
TAP	26	192	7
TAP	26	288	2
TAP	26	288	3
STR	26	336	2
SXL	26	336	2	96	144	5
TAP	26	336	3
TAP	27	96	7
TAP	27	192	0
STR	27	288	3
SXR	27	288	3	96	192	0
STR	27	288	4
SXL	27	288	4	96	192	7
TAP	28	288	0
TAP	28	288	7
TAP	28	336	1
TAP	28	336	6
TAP	29	0	2
TAP	29	0	5
STR	29	48	3
SI_	29	48	3	96	48	0
STR	29	48	4
SI_	29	48	4	96	48	7
TAP	29	240	1
TAP	29	240	6
TAP	29	288	1
TAP	29	288	6
TAP	30	0	2
TAP	30	0	5
TAP	30	48	2
TAP	30	48	5
TAP	30	96	3
TAP	30	120	4
TAP	30	144	3
TAP	30	168	4
TAP	30	192	1
TAP	30	240	1
TAP	30	288	5
TAP	30	312	4
TAP	30	336	5
TAP	30	360	4
TAP	31	0	7
TAP	31	48	7
TAP	31	96	2
TAP	31	120	3
TAP	31	144	2
TAP	31	168	3
STR	31	192	0
SCL	31	192	0	96	48	5
SCR	31	192	0	96	48	3
TAP	31	240	3
TAP	31	240	5
TAP	32	0	4
HLD	32	48	4	96
HLD	32	144	0	96
TAP	32	240	7
TAP	32	288	1
TAP	32	288	6
TAP	32	336	2
TAP	32	336	5
TAP	33	0	3
TAP	33	24	4
TAP	33	48	2
TAP	33	72	5
TAP	33	96	3
TAP	33	120	4
TAP	33	144	1
TAP	33	168	6
TAP	33	192	3
TAP	33	216	4
TAP	33	240	0
TAP	33	264	7
BRK	33	288	1
BRK	33	288	6
TAP	34	0	2
TAP	34	48	2
TAP	34	48	3
TAP	34	144	1
TAP	34	144	4
TAP	34	240	0
TAP	34	240	7
TAP	34	336	3
TAP	34	336	6
TAP	35	0	5
TAP	35	48	4
TAP	35	48	5
TAP	35	144	3
TAP	35	144	6
TAP	35	240	0
TAP	35	240	7
TAP	35	336	1
TAP	35	336	4
TAP	36	0	2
TAP	36	24	3
TAP	36	48	2
TAP	36	96	5
TAP	36	120	4
TAP	36	144	5
TAP	36	192	1
TAP	36	216	3
TAP	36	240	2
TAP	36	288	6
TAP	36	312	4
TAP	36	336	5
TAP	37	0	1
TAP	37	24	2
TAP	37	48	3
TAP	37	72	4
TAP	37	96	5
TAP	37	120	6
TAP	37	144	0
TAP	37	144	7
TAP	37	192	1
TAP	37	216	6
TAP	37	240	2
TAP	37	264	5
HLD	37	288	3	96
TAP	38	0	4
TAP	38	48	4
TAP	38	48	5
TAP	38	144	3
TAP	38	144	6
TAP	38	240	0
TAP	38	240	7
TAP	38	336	1
TAP	38	336	4
TAP	39	0	2
TAP	39	48	2
TAP	39	48	3
TAP	39	144	1
TAP	39	144	4
TAP	39	240	0
TAP	39	240	7
TAP	39	336	3
TAP	39	336	6
TAP	40	0	5
TAP	40	24	4
TAP	40	48	5
TAP	40	96	2
TAP	40	120	3
TAP	40	144	2
TAP	40	192	6
TAP	40	216	4
TAP	40	240	5
TAP	40	288	1
TAP	40	312	3
TAP	40	336	2
TAP	41	0	6
TAP	41	24	5
TAP	41	48	4
TAP	41	72	3
TAP	41	96	2
TAP	41	120	1
TAP	41	144	0
TAP	41	144	7
TAP	41	192	6
TAP	41	216	1
TAP	41	240	5
TAP	41	264	2
HLD	41	288	4	96
TAP	42	0	1
TAP	42	48	0
TAP	42	48	1
TAP	42	144	2
TAP	42	144	7
TAP	42	240	3
TAP	42	240	4
TAP	42	336	0
TAP	42	336	5
TAP	43	0	6
TAP	43	48	6
TAP	43	48	7
TAP	43	144	0
TAP	43	144	5
TAP	43	240	3
TAP	43	240	4
TAP	43	336	2
TAP	43	336	7
TAP	44	0	1
TAP	44	24	0
TAP	44	48	1
TAP	44	96	6
TAP	44	120	7
TAP	44	144	6
TAP	44	192	2
TAP	44	216	7
TAP	44	240	2
TAP	44	288	5
TAP	44	312	0
TAP	44	336	5
TAP	45	0	2
TAP	45	24	1
TAP	45	48	0
TAP	45	72	7
TAP	45	96	6
TAP	45	120	5
TAP	45	144	3
TAP	45	144	4
TAP	45	192	2
TAP	45	216	5
TAP	45	240	1
TAP	45	264	6
HLD	45	288	0	96
TAP	46	0	7
TAP	46	48	6
TAP	46	48	7
TAP	46	144	0
TAP	46	144	5
TAP	46	240	3
TAP	46	240	4
TAP	46	336	2
TAP	46	336	7
TAP	47	0	1
TAP	47	48	0
TAP	47	48	1
TAP	47	144	2
TAP	47	144	7
TAP	47	240	3
TAP	47	240	4
TAP	47	336	0
TAP	47	336	5
TAP	48	0	6
TAP	48	24	7
TAP	48	48	6
TAP	48	96	1
TAP	48	120	0
TAP	48	144	1
TAP	48	192	5
TAP	48	216	0
TAP	48	240	5
TAP	48	288	2
TAP	48	312	7
TAP	48	336	2
TAP	49	0	5
TAP	49	24	6
TAP	49	48	7
TAP	49	72	0
TAP	49	96	1
TAP	49	120	2
TAP	49	144	3
TAP	49	168	4
STR	49	192	5
SCL	49	192	5	96	48	2
TAP	50	0	0
TAP	50	0	2
TAP	50	72	0
TAP	50	72	6
TAP	50	144	4
TAP	50	144	6
STR	50	192	5
SCL	50	192	5	96	96	2
STR	50	288	2
SXL	50	288	2	96	192	5
TAP	52	0	5
TAP	52	0	7
TAP	52	72	1
TAP	52	72	7
TAP	52	144	1
TAP	52	144	3
STR	52	192	2
SCR	52	192	2	96	96	5
STR	52	288	5
SXR	52	288	5	96	192	2
TAP	54	0	1
TAP	54	0	3
TAP	54	72	3
TAP	54	72	5
TAP	54	144	5
TAP	54	144	7
STR	54	192	6
SCR	54	192	6	96	96	1
STR	54	288	1
SXR	54	288	1	96	192	6
TAP	56	0	4
TAP	56	0	6
TAP	56	72	2
TAP	56	72	4
TAP	56	144	0
TAP	56	144	2
STR	56	192	1
SCL	56	192	1	96	96	6
STR	56	288	6
SXL	56	288	6	96	192	1
HLD	58	0	6	192
HLD	58	192	4	192
HLD	59	0	3	192
TAP	59	192	2
TAP	59	288	0
TAP	59	288	6
HLD	60	0	1	192
HLD	60	192	3	192
HLD	61	0	4	192
TAP	61	192	5
TAP	61	288	1
TAP	61	288	7
STR	62	0	0
SCR	62	0	0	96	96	4
STR	62	96	4
SCR	62	96	4	96	96	0
STR	62	192	0
SLR	62	192	0	96	96	4
STR	62	288	4
SLR	62	288	4	96	96	0
STR	63	0	0
SSL	63	0	0	96	96	4
TAP	63	96	5
TAP	63	192	6
TAP	63	264	0
TAP	63	288	7
TAP	63	336	1
TAP	63	336	6
TAP	64	0	2
TAP	64	0	3
TAP	64	48	2
TAP	64	48	3
TAP	64	96	4
TAP	64	96	5
TAP	64	144	4
TAP	64	144	5
TAP	64	192	1
TAP	64	192	3
TAP	64	240	1
TAP	64	240	3
TAP	64	288	4
TAP	64	288	6
TAP	64	336	4
TAP	64	336	6
TAP	65	0	0
TAP	65	24	7
TAP	65	48	1
TAP	65	72	6
TAP	65	96	0
TAP	65	120	7
TAP	65	144	2
TAP	65	168	5
TAP	65	192	0
TAP	65	216	7
TAP	65	240	3
TAP	65	264	4
BRK	65	288	1
BRK	65	288	6
STR	66	0	0
SLR	66	0	0	96	72	4
STR	66	96	5
SV_	66	96	5	96	48	7
TAP	66	144	5
TAP	66	240	0
TAP	66	288	1
TAP	66	288	6
STR	67	0	7
SLL	67	0	7	96	72	3
STR	67	96	2
SV_	67	96	2	96	48	0
TAP	67	144	2
TAP	67	240	7
TAP	67	288	1
TAP	67	288	6
TAP	68	0	2
TAP	68	48	3
TAP	68	48	4
TAP	68	96	5
TAP	68	144	3
TAP	68	144	4
TAP	68	192	1
TAP	68	240	0
TAP	68	240	7
TAP	68	288	6
TAP	68	336	0
TAP	68	336	7
STR	69	0	1
SLR	69	0	1	96	96	0
STR	69	0	6
SLL	69	0	6	96	96	7
TAP	69	240	1
TAP	69	240	6
TAP	69	288	3
TAP	69	288	4
STR	70	0	1
SI_	70	0	1	96	48	6
TAP	70	96	5
STR	70	144	5
SI_	70	144	5	96	48	2
TAP	70	240	0
TAP	70	288	1
TAP	70	336	2
STR	71	0	3
SI_	71	0	3	96	48	0
TAP	71	96	7
STR	71	144	7
SI_	71	144	7	96	48	4
TAP	71	240	3
STR	71	288	3
SI_	71	288	3	96	48	7
STR	72	0	7
SCL	72	0	7	96	48	4
SCR	72	0	7	96	48	2
TAP	72	192	3
TAP	72	240	4
TAP	72	288	2
TAP	72	288	5
STR	73	0	3
SXR	73	0	3	96	144	0
STR	73	0	4
SXL	73	0	4	96	144	7
TAP	73	288	1
TAP	73	288	6
STR	74	0	7
SLL	74	0	7	96	72	3
STR	74	96	2
SV_	74	96	2	96	48	0
TAP	74	144	2
TAP	74	240	7
TAP	74	288	1
TAP	74	288	6
STR	75	0	0
SLR	75	0	0	96	72	4
STR	75	96	5
SV_	75	96	5	96	48	7
TAP	75	144	5
TAP	75	240	0
TAP	75	288	1
TAP	75	288	6
TAP	76	0	5
TAP	76	48	3
TAP	76	48	4
TAP	76	96	2
TAP	76	144	3
TAP	76	144	4
TAP	76	192	6
TAP	76	240	0
TAP	76	240	7
TAP	76	288	1
TAP	76	336	0
TAP	76	336	7
STR	77	0	1
SLR	77	0	1	96	96	7
STR	77	0	6
SLL	77	0	6	96	96	0
TAP	77	240	1
TAP	77	240	6
TAP	77	288	3
TAP	77	288	4
STR	78	0	6
SCR	78	0	6	96	48	1
TAP	78	96	2
STR	78	144	2
SCR	78	144	2	96	48	5
TAP	78	240	7
TAP	78	288	6
TAP	78	336	5
STR	79	0	4
SCR	79	0	4	96	48	7
TAP	79	96	0
STR	79	144	0
SCR	79	144	0	96	48	3
TAP	79	240	4
STR	79	288	4
SI_	79	288	4	96	48	0
STR	80	0	0
SCL	80	0	0	96	48	5
SCR	80	0	0	96	48	3
TAP	80	192	4
TAP	80	240	3
TAP	80	288	2
TAP	80	288	5
STR	81	0	0
SCR	81	0	0	96	48	3
STR	81	0	7
SCL	81	0	7	96	48	4
STR	81	192	3
SXR	81	192	3	96	192	0
STR	81	192	4
SXL	81	192	4	96	192	7
TAP	82	192	1
TAP	82	192	6
TAP	83	0	2
TAP	83	0	7
TAP	83	72	0
TAP	83	72	5
TAP	83	144	1
TAP	83	144	6
TAP	83	192	3
TAP	83	192	4
TAP	84	0	1
TAP	84	0	2
TAP	84	72	5
TAP	84	72	6
TAP	84	144	0
TAP	84	144	4
STR	84	192	3
SCL	84	192	3	96	48	0
STR	84	192	7
SCL	84	192	7	96	48	4
STR	85	0	0
SXL	85	0	0	96	192	3
STR	85	0	4
SXL	85	0	4	96	192	7
TAP	86	0	1
TAP	86	0	4
TAP	86	72	3
TAP	86	72	6
TAP	86	144	2
TAP	86	144	5
STR	86	192	3
SI_	86	192	3	96	48	0
STR	86	192	4
SI_	86	192	4	96	48	7
TAP	87	0	2
TAP	87	0	7
TAP	87	72	0
TAP	87	72	5
TAP	87	144	1
TAP	87	144	6
STR	87	192	0
SI_	87	192	0	96	48	3
STR	87	192	7
SI_	87	192	7	96	48	4
TAP	88	0	3
TAP	88	24	4
TAP	88	48	2
TAP	88	72	5
TAP	88	96	1
TAP	88	120	6
TAP	88	144	0
TAP	88	168	7
TAP	88	192	1
TAP	88	216	6
TAP	88	240	2
TAP	88	264	5
TAP	88	288	3
TAP	88	312	4
TAP	88	336	2
TAP	88	360	5
TAP	89	0	1
STR	89	48	1
SXL	89	48	1	96	72	2
STR	89	144	5
SXL	89	144	5	96	72	6
TAP	90	0	3
TAP	90	0	7
TAP	90	24	2
TAP	90	24	6
TAP	90	48	1
TAP	90	48	5
TAP	90	72	0
TAP	90	72	4
TAP	90	144	0
TAP	90	144	4
TAP	90	168	1
TAP	90	168	5
TAP	90	192	2
TAP	90	192	6
TAP	90	216	3
TAP	90	216	7
TAP	90	288	1
TAP	90	288	6
TAP	90	312	2
TAP	90	312	5
TAP	90	336	3
TAP	90	336	4
TAP	91	0	0
TAP	91	16	1
TAP	91	32	2
TAP	91	48	3
TAP	91	64	4
TAP	91	80	5
TAP	91	96	6
TAP	91	112	7
TAP	91	128	0
TAP	91	144	1
TAP	91	160	2
TAP	91	176	3
HLD	91	192	4	480
TAP	92	288	0

T_REC_TAP	533
T_REC_BRK	4
T_REC_XTP	0
T_REC_HLD	12
T_REC_XHO	0
T_REC_STR	96
T_REC_BST	0
T_REC_XST	0
T_REC_TTP	0
T_REC_THO	0
T_REC_SLD	101
T_REC_ALL	746
T_NUM_TAP	629
T_NUM_BRK	4
T_NUM_HLD	12
T_NUM_SLD	101
T_NUM_ALL	746
T_JUDGE_TAP	633
T_JUDGE_HLD	44
T_JUDGE_SLD	101
T_JUDGE_ALL	778
TTM_EACHPAIRS	178
TTM_SCR_TAP	314500
TTM_SCR_BRK	10400
TTM_SCR_HLD	12000
TTM_SCR_SLD	151500
TTM_SCR_ALL	488400
TTM_SCR_S	473400
TTM_SCR_SS	488000
TTM_RAT_ACV	10008

