VERSION	0.00.00	1.03.00
FES_MODE	0
BPM_DEF	172.000	172.000	172.000	172.000
MET_DEF	4	4
RESOLUTION	384
CLK_DEF	384
COMPATIBLE_CODE	MA2

BPM	0	0	172.000
MET	0	0	4	4

HLD	2	0	7	192
BST	2	192	0
SSL	2	192	0	96	288	4
HLD	4	0	0	192
BST	4	192	7
SSR	4	192	7	96	288	3
HLD	6	0	6	192
BST	6	192	1
SXL	6	192	1	96	312	5
HLD	8	0	1	192
BST	8	192	6
SXR	8	192	6	96	288	2
TAP	10	0	0
TAP	10	96	1
TAP	10	144	0
TAP	10	192	2
TAP	10	288	3
TAP	10	336	2
TAP	11	0	4
TAP	11	96	5
TAP	11	144	4
TAP	11	192	6
TAP	11	288	0
TAP	11	288	7
TAP	12	0	7
TAP	12	96	6
TAP	12	144	7
TAP	12	192	5
TAP	12	288	4
TAP	12	336	5
TAP	13	0	3
TAP	13	96	2
TAP	13	144	3
TAP	13	192	1
TAP	13	288	0
TAP	13	288	7
TAP	14	0	1
HLD	14	0	6	384
TAP	14	96	0
TAP	14	192	1
TAP	14	288	0
HLD	15	0	1	384
TAP	15	96	7
TAP	15	192	6
TAP	15	288	7
HLD	16	0	6	96
HLD	16	96	5	96
HLD	16	192	4	96
HLD	16	288	3	96
HLD	17	0	2	96
HLD	17	96	3	96
HLD	17	192	4	96
BRK	17	288	5
TAP	18	0	7
TAP	18	96	6
TAP	18	144	7
TAP	18	192	5
TAP	18	288	4
TAP	18	336	5
TAP	19	0	3
TAP	19	96	2
TAP	19	144	3
TAP	19	192	1
TAP	19	288	0
TAP	19	288	7
TAP	20	0	0
TAP	20	96	1
TAP	20	144	0
TAP	20	192	2
TAP	20	288	3
TAP	20	336	2
TAP	21	0	4
TAP	21	96	5
TAP	21	144	4
TAP	21	192	6
TAP	21	288	0
TAP	21	288	7
HLD	22	0	1	384
TAP	22	0	6
TAP	22	96	7
TAP	22	192	6
TAP	22	288	7
HLD	23	0	6	384
TAP	23	96	0
TAP	23	192	1
TAP	23	288	0
HLD	24	0	1	96
HLD	24	96	2	96
HLD	24	192	3	96
HLD	24	288	4	96
HLD	25	0	5	96
HLD	25	96	4	96
HLD	25	192	3	96
BRK	25	288	2
TAP	26	0	0
TAP	26	0	1
TAP	26	96	6
TAP	26	144	7
TAP	26	192	0
TAP	26	192	5
TAP	26	288	0
STR	26	288	5
SUL	26	288	5	96	192	3
TAP	27	288	1
TAP	27	288	2
TAP	28	0	1
TAP	28	0	7
TAP	28	192	1
TAP	28	192	6
TAP	28	288	0
TAP	28	336	4
TAP	29	0	0
TAP	29	48	5
TAP	29	144	6
TAP	29	144	7
BRK	29	288	1
BRK	29	288	6
TAP	30	0	0
TAP	30	48	4
TAP	30	96	2
TAP	30	144	6
TAP	30	192	0
TAP	30	240	4
TAP	30	288	2
TAP	30	288	4
TAP	31	0	7
TAP	31	48	3
TAP	31	96	5
TAP	31	144	1
TAP	31	192	7
TAP	31	240	3
TAP	31	288	3
TAP	31	288	5
TAP	32	0	0
TAP	32	48	0
TAP	32	96	7
TAP	32	144	7
TAP	32	192	0
TAP	32	240	0
TAP	32	288	7
TAP	32	336	7
TAP	33	0	0
TAP	33	24	7
TAP	33	48	0
TAP	33	72	7
TAP	33	96	0
TAP	33	120	7
TAP	33	144	0
TAP	33	168	7
TAP	33	192	0
BRK	33	288	1
BRK	33	288	6
HLD	34	0	1	144
TAP	34	144	0
TAP	34	240	1
TAP	34	336	6
HLD	35	0	6	144
TAP	35	144	7
TAP	35	240	6
TAP	35	336	0
TAP	36	0	7
TAP	36	48	0
TAP	36	96	6
TAP	36	144	1
TAP	36	192	5
TAP	36	240	2
TAP	36	288	4
TAP	36	336	3
TAP	37	0	6
TAP	37	48	7
TAP	37	96	5
TAP	37	144	0
TAP	37	192	4
TAP	37	240	1
TAP	37	288	3
TAP	37	336	2
HLD	38	0	6	144
TAP	38	144	7
TAP	38	240	6
TAP	38	336	1
HLD	39	0	1	144
TAP	39	144	0
TAP	39	240	1
TAP	39	336	7
TAP	40	0	0
TAP	40	48	7
TAP	40	96	1
TAP	40	144	6
TAP	40	192	2
TAP	40	240	5
TAP	40	288	3
TAP	40	336	4
TAP	41	0	1
TAP	41	48	0
TAP	41	96	2
TAP	41	144	7
TAP	41	192	3
TAP	41	240	6
TAP	41	288	4
TAP	41	336	5
HLD	42	0	2	144
TAP	42	144	0
TAP	42	240	1
TAP	42	336	5
HLD	43	0	5	144
TAP	43	144	7
TAP	43	240	6
TAP	43	336	1
TAP	44	0	0
TAP	44	48	1
TAP	44	96	7
TAP	44	144	2
TAP	44	192	6
TAP	44	240	3
TAP	44	288	5
TAP	44	336	4
TAP	45	0	6
TAP	45	48	7
TAP	45	96	5
TAP	45	144	0
TAP	45	192	4
TAP	45	240	1
TAP	45	288	3
TAP	45	336	2
HLD	46	0	5	144
TAP	46	144	7
TAP	46	240	6
TAP	46	336	2
HLD	47	0	2	144
TAP	47	144	0
TAP	47	240	1
TAP	47	336	6
TAP	48	0	7
TAP	48	48	6
TAP	48	96	0
TAP	48	144	5
TAP	48	192	1
TAP	48	240	4
TAP	48	288	2
TAP	48	336	3
TAP	49	0	1
TAP	49	48	0
TAP	49	96	2
TAP	49	144	7
TAP	49	192	3
TAP	49	240	6
TAP	49	288	4
TAP	49	336	5
TAP	50	0	1
TAP	50	0	6
TAP	50	72	1
TAP	50	72	6
TAP	50	144	1
TAP	50	144	6
STR	50	192	0
SXL	50	192	0	96	288	3
STR	50	192	7
SXR	50	192	7	96	288	4
TAP	52	0	1
TAP	52	0	7
TAP	52	72	1
TAP	52	72	7
TAP	52	144	1
TAP	52	144	7
STR	52	192	0
SUL	52	192	0	96	288	4
SUR	52	192	0	96	288	4
TAP	54	0	2
TAP	54	0	5
TAP	54	72	2
TAP	54	72	5
TAP	54	144	2
TAP	54	144	5
STR	54	192	3
SXR	54	192	3	96	288	0
STR	54	192	4
SXL	54	192	4	96	288	7
TAP	56	0	0
TAP	56	0	6
TAP	56	72	0
TAP	56	72	6
TAP	56	144	0
TAP	56	144	6
STR	56	192	7
SLL	56	192	7	96	288	3
SLR	56	192	7	96	288	3
TAP	58	0	0
HLD	58	0	6	384
TAP	58	192	4
HLD	59	0	1	384
TAP	59	192	3
HLD	60	0	7	384
TAP	60	192	5
HLD	61	0	0	192
TAP	61	192	2
TAP	62	0	7
TAP	62	48	3
TAP	62	96	5
TAP	62	144	1
TAP	62	192	7
TAP	62	240	3
TAP	62	288	3
TAP	62	288	5
TAP	63	0	0
TAP	63	48	4
TAP	63	96	2
TAP	63	144	6
TAP	63	192	0
TAP	63	240	4
TAP	63	288	2
TAP	63	288	4
TAP	64	0	7
TAP	64	48	7
TAP	64	96	0
TAP	64	144	0
TAP	64	192	7
TAP	64	240	7
TAP	64	288	0
TAP	64	336	0
TAP	65	0	7
TAP	65	24	0
TAP	65	48	7
TAP	65	72	0
TAP	65	96	7
TAP	65	120	0
TAP	65	144	7
TAP	65	168	0
TAP	65	192	7
BRK	65	288	1
BRK	65	288	6
TAP	66	0	0
TAP	66	0	7
TAP	66	96	4
TAP	66	96	5
TAP	66	144	4
TAP	66	144	5
TAP	66	288	2
TAP	66	288	3
TAP	67	0	2
TAP	67	0	3
TAP	67	96	0
TAP	67	96	7
TAP	67	144	0
TAP	67	144	7
TAP	67	240	3
TAP	67	288	4
TAP	67	336	2
TAP	68	0	5
TAP	68	48	1
TAP	68	96	6
TAP	68	144	0
TAP	68	192	7
TAP	68	240	0
TAP	68	288	6
TAP	68	336	1
TAP	69	0	5
TAP	69	48	2
TAP	69	96	4
TAP	69	144	3
BRK	69	288	1
BRK	69	288	6
TAP	70	0	0
TAP	70	96	2
TAP	70	144	3
TAP	70	240	5
TAP	70	288	6
TAP	70	336	7
TAP	71	0	0
TAP	71	96	2
TAP	71	144	1
TAP	71	240	7
TAP	71	288	6
TAP	71	336	5
TAP	72	0	6
TAP	72	0	7
TAP	72	96	0
TAP	72	96	5
TAP	72	192	6
TAP	72	192	7
TAP	72	240	6
TAP	72	240	7
TAP	72	288	6
TAP	72	288	7
TAP	73	0	1
TAP	73	0	5
STR	73	96	3
SCL	73	96	3	96	96	0
SCR	73	96	3	96	96	6
TAP	74	0	6
TAP	74	0	7
TAP	74	96	3
TAP	74	96	4
TAP	74	144	3
TAP	74	144	4
TAP	74	240	3
TAP	74	240	4
TAP	74	336	1
TAP	74	336	2
TAP	75	0	1
TAP	75	0	2
TAP	75	96	6
TAP	75	96	7
TAP	75	144	6
TAP	75	144	7
TAP	75	240	2
TAP	75	288	3
TAP	75	336	1
TAP	76	0	4
TAP	76	48	0
TAP	76	96	5
TAP	76	144	7
TAP	76	192	6
TAP	76	240	7
TAP	76	288	5
TAP	76	336	0
TAP	77	0	4
TAP	77	48	1
TAP	77	96	3
TAP	77	144	2
BRK	77	288	0
BRK	77	288	5
TAP	78	0	6
TAP	78	96	4
TAP	78	144	3
TAP	78	240	1
TAP	78	288	0
TAP	78	336	7
TAP	79	0	6
TAP	79	96	4
TAP	79	144	5
TAP	79	240	7
TAP	79	288	0
TAP	79	336	1
TAP	80	0	0
TAP	80	0	7
TAP	80	96	1
TAP	80	96	6
TAP	80	192	0
TAP	80	192	7
TAP	80	240	0
TAP	80	240	7
TAP	80	288	0
TAP	80	288	7
TAP	81	0	2
TAP	81	0	6
STR	81	96	4
SCL	81	96	4	96	96	1
SCR	81	96	4	96	96	7
TAP	82	0	0
TAP	82	0	7
TAP	82	72	1
TAP	82	72	6
TAP	82	144	2
TAP	82	144	5
STR	82	192	0
SXL	82	192	0	96	288	3
STR	82	192	7
SXR	82	192	7	96	288	4
TAP	84	0	3
TAP	84	0	5
TAP	84	72	2
TAP	84	72	6
TAP	84	144	1
TAP	84	144	7
STR	84	192	0
SUL	84	192	0	96	288	3
SUR	84	192	0	96	288	5
TAP	86	0	0
TAP	86	0	7
TAP	86	72	1
TAP	86	72	6
TAP	86	144	2
TAP	86	144	5
STR	86	192	3
SXR	86	192	3	96	288	0
STR	86	192	4
SXL	86	192	4	96	288	7
TAP	88	0	2
TAP	88	0	4
TAP	88	72	1
TAP	88	72	5
TAP	88	144	0
TAP	88	144	6
STR	88	192	7
SLL	88	192	7	96	288	2
SLR	88	192	7	96	288	4
TAP	90	0	1
TAP	90	24	0
TAP	90	48	1
TAP	90	72	0
TAP	90	144	6
TAP	90	168	7
TAP	90	192	6
TAP	90	216	7
TAP	90	288	6
TAP	90	312	5
TAP	90	336	4
TAP	90	360	3
HLD	91	0	2	192
BRK	91	192	0

T_REC_TAP	408
T_REC_BRK	13
T_REC_XTP	0
T_REC_HLD	35
T_REC_XHO	0
T_REC_STR	15
T_REC_BST	4
T_REC_XST	0
T_REC_TTP	0
T_REC_THO	0
T_REC_SLD	25
T_REC_ALL	500
T_NUM_TAP	423
T_NUM_BRK	17
T_NUM_HLD	35
T_NUM_SLD	25
T_NUM_ALL	500
T_JUDGE_TAP	440
T_JUDGE_HLD	132
T_JUDGE_SLD	25
T_JUDGE_ALL	597
TTM_EACHPAIRS	78
TTM_SCR_TAP	211500
TTM_SCR_BRK	44200
TTM_SCR_HLD	35000
TTM_SCR_SLD	37500
TTM_SCR_ALL	328200
TTM_SCR_S	316750
TTM_SCR_SS	326500
TTM_RAT_ACV	10052

