VERSION	0.00.00	1.03.00
FES_MODE	0
BPM_DEF	172.000	172.000	172.000	172.000
MET_DEF	4	4
RESOLUTION	384
CLK_DEF	384
COMPATIBLE_CODE	MA2

BPM	0	0	172.000
MET	0	0	4	4

HLD	2	0	2	96
TAP	2	192	2
TAP	3	0	3
TAP	3	0	4
TAP	3	192	3
TAP	3	192	4
HLD	4	0	5	96
TAP	4	192	5
TAP	5	0	3
TAP	5	0	4
TAP	5	192	3
TAP	5	192	4
HLD	6	0	2	96
HLD	6	0	3	96
TAP	6	192	2
TAP	6	192	3
TAP	7	0	3
TAP	7	0	4
TAP	7	192	3
TAP	7	192	4
HLD	8	0	4	96
HLD	8	0	5	96
TAP	8	192	4
TAP	8	192	5
BRK	9	0	3
BRK	9	0	4
TAP	10	0	2
TAP	10	96	3
TAP	10	192	2
TAP	10	288	3
HLD	11	0	2	192
HLD	11	0	3	192
TAP	12	0	0
TAP	12	96	1
TAP	12	192	2
TAP	12	288	3
HLD	13	0	5	192
TAP	13	192	4
TAP	14	0	5
TAP	14	96	5
TAP	14	192	4
TAP	14	288	4
TAP	15	0	3
TAP	15	96	2
TAP	15	192	2
TAP	15	192	3
TAP	16	0	1
TAP	16	96	0
TAP	16	96	1
TAP	16	192	6
TAP	16	288	6
TAP	16	288	7
TAP	17	0	0
TAP	17	96	0
TAP	17	96	7
TAP	17	192	0
TAP	17	192	7
TAP	17	288	1
TAP	17	288	6
TAP	18	0	5
TAP	18	96	4
TAP	18	192	5
TAP	18	288	4
HLD	19	0	4	192
HLD	19	0	5	192
TAP	20	0	7
TAP	20	96	6
TAP	20	192	5
TAP	20	288	4
HLD	21	0	2	192
TAP	21	192	3
TAP	22	0	2
TAP	22	96	2
TAP	22	192	3
TAP	22	288	3
TAP	23	0	4
TAP	23	96	5
TAP	23	192	4
TAP	23	192	5
TAP	24	0	6
TAP	24	96	6
TAP	24	96	7
TAP	24	192	1
TAP	24	288	0
TAP	24	288	1
TAP	25	0	7
TAP	25	96	0
TAP	25	96	7
TAP	25	192	0
TAP	25	192	7
TAP	25	288	1
TAP	25	288	6
TAP	26	0	2
TAP	26	96	3
TAP	26	192	2
TAP	26	288	2
TAP	26	288	3
TAP	27	0	5
TAP	27	96	4
TAP	27	192	5
TAP	27	288	4
TAP	27	288	5
HLD	28	0	3	192
HLD	28	0	4	192
TAP	29	0	3
TAP	29	0	4
TAP	29	96	2
TAP	29	96	5
TAP	29	192	1
TAP	29	192	6
TAP	29	288	0
TAP	29	288	7
TAP	30	0	0
TAP	30	96	0
TAP	30	192	0
TAP	30	288	0
TAP	31	0	7
TAP	31	96	7
TAP	31	192	7
TAP	31	288	7
TAP	32	0	0
TAP	32	96	0
TAP	32	192	7
TAP	32	288	7
TAP	33	0	0
TAP	33	96	7
TAP	33	192	0
TAP	33	192	7
BRK	33	288	1
BRK	33	288	6
TAP	34	0	5
TAP	34	96	4
TAP	34	96	5
TAP	34	192	2
TAP	34	288	2
TAP	34	288	3
TAP	35	0	5
TAP	35	96	4
TAP	35	96	6
TAP	35	192	2
TAP	35	288	1
TAP	35	288	3
TAP	36	0	0
TAP	36	96	1
TAP	36	192	2
TAP	36	288	3
TAP	37	0	7
TAP	37	96	6
TAP	37	192	5
TAP	37	288	4
TAP	38	0	2
TAP	38	96	2
TAP	38	96	3
TAP	38	192	5
TAP	38	288	4
TAP	38	288	5
TAP	39	0	2
TAP	39	96	1
TAP	39	96	3
TAP	39	192	5
TAP	39	288	4
TAP	39	288	6
TAP	40	0	7
TAP	40	96	6
TAP	40	192	5
TAP	40	288	4
TAP	41	0	0
TAP	41	96	1
TAP	41	192	2
TAP	41	288	3
TAP	42	0	5
TAP	42	96	4
TAP	42	96	5
TAP	42	192	2
TAP	42	288	2
TAP	42	288	3
TAP	43	0	5
TAP	43	96	4
TAP	43	96	6
TAP	43	192	2
TAP	43	288	1
TAP	43	288	3
TAP	44	0	4
TAP	44	96	5
TAP	44	192	6
TAP	44	288	7
TAP	45	0	0
TAP	45	96	1
TAP	45	192	2
TAP	45	288	3
TAP	46	0	2
TAP	46	96	2
TAP	46	96	3
TAP	46	192	5
TAP	46	288	4
TAP	46	288	5
TAP	47	0	2
TAP	47	96	1
TAP	47	96	3
TAP	47	192	5
TAP	47	288	4
TAP	47	288	6
TAP	48	0	3
TAP	48	96	2
TAP	48	192	1
TAP	48	288	0
TAP	49	0	7
TAP	49	96	6
TAP	49	192	5
TAP	49	288	4
HLD	50	0	2	384
HLD	51	0	3	384
HLD	52	0	4	384
TAP	53	0	5
TAP	53	192	3
TAP	53	192	4
HLD	54	0	5	384
HLD	55	0	4	384
HLD	56	0	3	384
TAP	57	0	2
TAP	57	192	3
TAP	57	192	4
STR	58	0	2
SLL	58	0	2	96	480	6
STR	60	0	6
SLL	60	0	6	96	480	2
STR	62	0	1
SLR	62	0	1	96	480	5
STR	64	0	5
SLR	64	0	5	96	480	1
TAP	66	0	0
TAP	66	96	1
TAP	66	192	2
TAP	66	288	3
TAP	67	0	4
TAP	67	0	5
TAP	67	96	4
TAP	67	96	5
TAP	67	192	3
TAP	67	192	6
TAP	67	288	3
TAP	67	288	6
TAP	68	0	7
TAP	68	96	6
TAP	68	192	5
TAP	68	288	4
TAP	69	0	2
TAP	69	0	3
TAP	69	96	2
TAP	69	96	3
TAP	69	192	1
TAP	69	192	4
TAP	70	0	1
TAP	70	96	0
TAP	70	192	7
TAP	70	288	6
TAP	71	0	4
TAP	71	0	5
TAP	71	96	6
TAP	71	192	6
TAP	71	288	0
TAP	71	288	7
TAP	72	0	6
TAP	72	96	7
TAP	72	192	0
TAP	72	288	1
TAP	73	0	2
TAP	73	0	3
TAP	73	96	1
TAP	73	192	1
BRK	73	288	0
BRK	73	288	7
TAP	74	0	1
TAP	74	96	0
TAP	74	96	1
TAP	74	192	1
TAP	74	288	0
TAP	74	288	1
TAP	75	0	6
TAP	75	96	6
TAP	75	96	7
TAP	75	192	6
TAP	75	288	6
TAP	75	288	7
TAP	76	0	1
TAP	76	96	0
TAP	76	96	2
TAP	76	192	1
TAP	76	288	0
TAP	76	288	2
TAP	77	0	6
TAP	77	96	5
TAP	77	96	7
TAP	77	192	6
TAP	77	288	5
TAP	77	288	7
TAP	78	0	2
TAP	78	96	1
TAP	78	96	3
TAP	78	192	2
TAP	78	288	1
TAP	78	288	3
TAP	79	0	5
TAP	79	96	4
TAP	79	96	6
TAP	79	192	5
TAP	79	288	4
TAP	79	288	6
TAP	80	0	2
TAP	80	96	2
TAP	80	96	3
TAP	80	192	2
TAP	80	288	2
TAP	80	288	3
TAP	81	0	5
TAP	81	96	4
TAP	81	96	5
TAP	81	192	5
TAP	81	288	4
TAP	81	288	5
STR	82	0	6
SCL	82	0	6	96	480	1
STR	84	0	1
SCR	84	0	1	96	480	6
STR	86	0	4
SCR	86	0	4	96	480	3
STR	88	0	3
SCL	88	0	3	96	480	4
TAP	90	0	3
TAP	90	0	4
TAP	90	96	3
TAP	90	96	4
TAP	90	192	2
TAP	90	192	5
TAP	90	288	2
TAP	90	288	5
TAP	91	0	1
TAP	91	0	6
TAP	91	96	1
TAP	91	96	6
BST	91	192	0
SF_	91	192	0	96	432	4

T_REC_TAP	298
T_REC_BRK	6
T_REC_XTP	0
T_REC_HLD	20
T_REC_XHO	0
T_REC_STR	8
T_REC_BST	1
T_REC_XST	0
T_REC_TTP	0
T_REC_THO	0
T_REC_SLD	9
T_REC_ALL	342
T_NUM_TAP	306
T_NUM_BRK	7
T_NUM_HLD	20
T_NUM_SLD	9
T_NUM_ALL	342
T_JUDGE_TAP	313
T_JUDGE_HLD	92
T_JUDGE_SLD	9
T_JUDGE_ALL	414
TTM_EACHPAIRS	85
TTM_SCR_TAP	153000
TTM_SCR_BRK	18200
TTM_SCR_HLD	20000
TTM_SCR_SLD	13500
TTM_SCR_ALL	204700
TTM_SCR_S	197900
TTM_SCR_SS	204000
TTM_RAT_ACV	10034

