VERSION	0.00.00	1.03.00
FES_MODE	0
BPM_DEF	172.000	172.000	172.000	172.000
MET_DEF	4	4
RESOLUTION	384
CLK_DEF	384
COMPATIBLE_CODE	MA2

BPM	0	0	172.000
MET	0	0	4	4

TAP	2	0	0
TAP	2	192	0
TAP	3	0	0
TAP	3	0	1
TAP	4	0	7
TAP	4	192	7
TAP	5	0	6
TAP	5	0	7
TAP	6	0	5
TAP	6	192	5
TAP	7	0	4
TAP	7	0	5
TAP	8	0	2
TAP	8	192	2
BRK	9	0	2
BRK	9	0	3
TAP	10	0	3
TAP	10	192	3
TAP	11	0	4
TAP	11	192	4
HLD	12	0	5	192
TAP	13	0	4
TAP	13	0	5
TAP	13	192	4
TAP	13	192	5
TAP	14	0	6
TAP	14	192	6
TAP	15	0	7
TAP	15	192	7
TAP	16	0	0
TAP	16	192	0
TAP	17	0	0
TAP	17	0	1
TAP	18	0	4
TAP	18	192	4
TAP	19	0	3
TAP	19	192	3
HLD	20	0	2	192
TAP	21	0	2
TAP	21	0	3
TAP	22	0	1
TAP	22	192	1
TAP	23	0	0
TAP	23	192	0
TAP	24	0	7
TAP	24	192	7
TAP	25	0	6
TAP	25	0	7
TAP	26	0	5
TAP	26	192	5
TAP	27	0	4
TAP	27	0	5
TAP	27	192	4
TAP	27	192	5
TAP	28	0	2
TAP	28	192	2
TAP	29	0	2
TAP	29	0	3
TAP	29	192	2
TAP	29	192	3
STR	30	0	4
SI_	30	0	4	96	288	7
STR	32	0	3
SI_	32	0	3	96	288	0
TAP	34	0	0
TAP	34	96	0
TAP	34	192	0
TAP	35	0	1
TAP	35	96	1
TAP	35	192	1
TAP	36	0	2
TAP	36	96	2
TAP	36	192	2
TAP	37	0	2
TAP	37	0	3
TAP	37	192	2
TAP	37	192	3
TAP	38	0	4
TAP	38	96	4
TAP	38	192	4
TAP	39	0	5
TAP	39	96	5
TAP	39	192	5
TAP	40	0	6
TAP	40	96	6
TAP	40	192	6
TAP	41	0	6
TAP	41	0	7
STR	42	0	7
SI_	42	0	7	96	288	3
STR	44	0	0
SI_	44	0	0	96	288	4
STR	46	0	7
SI_	46	0	7	96	288	3
STR	48	0	0
SI_	48	0	0	96	288	4
HLD	50	0	7	192
TAP	51	0	7
TAP	51	192	6
TAP	51	192	7
HLD	52	0	5	192
TAP	53	0	5
TAP	53	192	4
TAP	53	192	5
HLD	54	0	3	192
TAP	55	0	3
TAP	55	192	2
TAP	55	192	3
HLD	56	0	1	192
TAP	57	0	1
TAP	57	192	0
TAP	57	192	1
TAP	58	0	0
TAP	58	0	1
TAP	59	0	0
TAP	59	0	1
TAP	60	0	0
TAP	60	0	7
TAP	61	0	0
TAP	61	0	7
TAP	62	0	6
TAP	62	0	7
TAP	63	0	6
TAP	63	0	7
TAP	64	0	0
TAP	64	96	7
TAP	64	192	0
TAP	64	288	7
TAP	65	0	0
TAP	66	0	0
TAP	66	96	0
TAP	66	192	0
TAP	67	0	1
TAP	67	96	1
TAP	67	192	0
TAP	67	192	1
TAP	68	0	3
TAP	68	96	3
TAP	68	192	3
TAP	69	0	2
TAP	69	96	2
TAP	69	192	2
TAP	69	192	3
TAP	70	0	4
TAP	70	96	4
TAP	70	192	4
TAP	71	0	5
TAP	71	96	5
TAP	71	192	4
TAP	71	192	5
TAP	72	0	7
TAP	72	96	7
TAP	72	192	7
TAP	73	0	6
TAP	73	96	6
TAP	73	192	6
TAP	73	192	7
TAP	74	0	7
TAP	74	96	7
TAP	74	192	7
TAP	75	0	6
TAP	75	96	6
TAP	75	192	6
TAP	75	192	7
TAP	76	0	4
TAP	76	96	4
TAP	76	192	4
TAP	77	0	5
TAP	77	96	5
TAP	77	192	4
TAP	77	192	5
TAP	78	0	3
TAP	78	96	3
TAP	78	192	3
TAP	79	0	2
TAP	79	96	2
TAP	79	192	2
TAP	79	192	3
TAP	80	0	0
TAP	80	96	0
TAP	80	192	0
TAP	81	0	1
TAP	81	96	1
TAP	81	192	0
TAP	81	192	1
HLD	82	0	0	192
HLD	83	0	0	192
HLD	84	0	7	192
HLD	85	0	7	192
TAP	86	0	0
TAP	86	192	1
TAP	87	0	0
TAP	87	0	1
TAP	87	192	0
TAP	87	192	1
TAP	88	0	7
TAP	88	192	6
TAP	89	0	6
TAP	89	0	7
TAP	89	192	6
TAP	89	192	7
TAP	90	0	0
TAP	90	96	0
TAP	90	192	7
TAP	90	288	7
TAP	91	0	0
TAP	91	96	0
TAP	91	192	7

T_REC_TAP	184
T_REC_BRK	2
T_REC_XTP	0
T_REC_HLD	10
T_REC_XHO	0
T_REC_STR	6
T_REC_BST	0
T_REC_XST	0
T_REC_TTP	0
T_REC_THO	0
T_REC_SLD	6
T_REC_ALL	208
T_NUM_TAP	190
T_NUM_BRK	2
T_NUM_HLD	10
T_NUM_SLD	6
T_NUM_ALL	208
T_JUDGE_TAP	192
T_JUDGE_HLD	40
T_JUDGE_SLD	6
T_JUDGE_ALL	238
TTM_EACHPAIRS	38
TTM_SCR_TAP	95000
TTM_SCR_BRK	5200
TTM_SCR_HLD	10000
TTM_SCR_SLD	9000
TTM_SCR_ALL	119200
TTM_SCR_S	115450
TTM_SCR_SS	119000
TTM_RAT_ACV	10016

