VERSION	0.00.00	1.03.00
FES_MODE	0
BPM_DEF	168.000	168.000	168.000	168.000
MET_DEF	4	4
RESOLUTION	384
CLK_DEF	384
COMPATIBLE_CODE	MA2

BPM	0	0	168.000
MET	0	0	4	4

TAP	1	0	0
TAP	1	48	1
TAP	1	96	2
TAP	1	144	3
TAP	1	192	4
TAP	1	240	5
TAP	1	288	6
TAP	1	336	7
TAP	2	0	7
TAP	2	48	6
TAP	2	96	5
TAP	2	144	4
TAP	2	192	3
TAP	2	240	2
TAP	2	288	1
TAP	2	336	0
STR	3	0	0
SCR	3	0	0	96	96	4
STR	3	96	4
SCR	3	96	4	96	96	0
STR	3	192	0
SCR	3	192	0	96	96	4
STR	4	0	7
SCL	4	0	7	96	192	0
TAP	5	0	2
TAP	5	48	3
TAP	5	96	2
HLD	5	144	2	192
TAP	5	192	1
TAP	5	240	0
TAP	5	288	7
TAP	5	336	6
TAP	6	0	5
TAP	6	48	4
TAP	6	96	5
HLD	6	144	5	192
TAP	6	192	6
TAP	6	240	7
TAP	6	288	0
TAP	6	336	1
TAP	7	0	0
TAP	7	48	4
TAP	7	96	3
TAP	7	144	7
TAP	7	192	0
TAP	7	192	6
TAP	7	240	1
TAP	7	240	5
TAP	7	288	2
TAP	7	288	4
TAP	7	336	3
STR	8	0	0
SI_	8	0	0	96	48	2
STR	8	0	7
SI_	8	0	7	96	48	3
STR	8	96	0
SI_	8	96	0	96	48	4
STR	8	96	7
SI_	8	96	7	96	48	5
TAP	8	192	0
TAP	8	192	7
BRK	8	288	0
TAP	9	0	7
TAP	9	48	2
TAP	9	72	3
TAP	9	96	2
HLD	9	144	5	96
TAP	9	192	7
HLD	9	240	2	96
TAP	9	288	0
TAP	9	336	5
TAP	10	0	0
TAP	10	48	5
TAP	10	72	4
TAP	10	96	5
HLD	10	144	2	96
TAP	10	192	0
HLD	10	240	5	96
TAP	10	288	7
TAP	10	336	2
TAP	11	0	4
TAP	11	48	0
TAP	11	72	7
TAP	11	96	0
HLD	11	144	4	96
TAP	11	192	3
HLD	11	240	0	96
TAP	11	288	7
TAP	11	336	4
STR	12	0	0
SI_	12	0	0	96	48	4
STR	12	0	7
SI_	12	0	7	96	48	5
STR	12	96	0
SI_	12	96	0	96	48	2
STR	12	96	7
SI_	12	96	7	96	48	3
TAP	12	192	0
TAP	12	192	7
TAP	12	288	1
TAP	12	288	6
TAP	12	336	3
TAP	12	336	4
STR	13	0	2
SUR	13	0	2	96	96	5
TAP	13	144	7
TAP	13	240	7
TAP	13	288	7
STR	14	0	5
SUL	14	0	5	96	96	2
TAP	14	144	0
TAP	14	240	0
TAP	14	288	0
TAP	15	0	0
TAP	15	48	7
TAP	15	96	1
TAP	15	144	6
TAP	15	192	2
TAP	15	240	5
TAP	15	288	3
TAP	15	336	4
TAP	16	0	2
TAP	16	0	7
TAP	16	48	1
TAP	16	72	0
TAP	16	96	1
TAP	16	144	2
TAP	16	144	7
TAP	16	192	0
TAP	16	192	5
TAP	16	240	6
TAP	16	264	7
TAP	16	288	6
TAP	16	336	0
TAP	16	336	5
STR	17	0	6
SUL	17	0	6	96	192	3
STR	17	0	7
SXL	17	0	7	96	192	2
TAP	18	0	1
TAP	18	0	4
TAP	18	96	2
TAP	18	144	3
TAP	18	240	2
TAP	18	288	7
STR	19	0	0
SXR	19	0	0	96	192	5
STR	19	0	1
SUR	19	0	1	96	192	4
TAP	20	0	3
TAP	20	0	6
TAP	20	96	4
TAP	20	144	5
TAP	20	240	4
TAP	20	288	0
TAP	20	336	1
TAP	20	336	5
STR	21	0	0
SXR	21	0	0	96	288	1
STR	21	0	4
SXR	21	0	4	96	288	5
STR	22	144	0
SCR	22	144	0	96	96	3
TAP	22	240	7
TAP	22	288	6
TAP	22	336	5
TAP	23	0	4
TAP	23	96	0
TAP	23	144	1
TAP	23	144	7
TAP	23	192	2
TAP	23	192	6
TAP	23	288	7
STR	23	336	3
SXL	23	336	3	96	144	3
SXR	23	336	3	96	144	3
TAP	24	240	7
BRK	24	288	7
HLD	25	0	1	48
TAP	25	48	3
TAP	25	72	2
TAP	25	96	3
TAP	25	144	1
HLD	25	192	6	48
TAP	25	240	4
TAP	25	264	5
TAP	25	288	4
TAP	25	336	6
HLD	26	0	2	48
TAP	26	48	0
TAP	26	72	1
TAP	26	96	0
TAP	26	144	2
HLD	26	192	5	48
TAP	26	240	7
TAP	26	264	6
TAP	26	288	7
TAP	26	336	5
HLD	27	0	1	48
TAP	27	48	3
TAP	27	72	2
TAP	27	96	3
TAP	27	144	1
HLD	27	192	7	48
TAP	27	240	1
TAP	27	264	0
TAP	27	288	1
TAP	27	336	7
HLD	28	0	3	48
TAP	28	48	5
TAP	28	72	4
TAP	28	96	5
TAP	28	144	3
HLD	28	192	5	48
TAP	28	240	7
TAP	28	264	6
TAP	28	288	7
TAP	28	336	5
HLD	29	0	0	48
TAP	29	48	4
TAP	29	72	3
TAP	29	96	5
TAP	29	144	0
HLD	29	192	7	48
TAP	29	240	3
TAP	29	264	4
TAP	29	288	2
TAP	29	336	7
HLD	30	0	3	48
TAP	30	48	7
TAP	30	72	0
TAP	30	96	6
TAP	30	144	3
HLD	30	192	4	48
TAP	30	240	0
TAP	30	264	7
TAP	30	288	1
TAP	30	336	4
STR	31	0	0
SV_	31	0	0	96	48	3
SV_	31	0	0	96	48	5
TAP	31	48	0
TAP	31	96	0
STR	31	192	7
SV_	31	192	7	96	48	2
SV_	31	192	7	96	48	4
TAP	31	288	7
STR	32	0	1
SI_	32	0	1	96	48	5
STR	32	96	0
SI_	32	96	0	96	48	4
STR	32	192	7
SI_	32	192	7	96	48	3
BRK	32	288	6
STR	33	0	0
SUR	33	0	0	96	48	4
STR	33	0	4
SUR	33	0	4	96	48	0
STR	33	96	0
SXR	33	96	0	96	48	6
STR	33	96	4
SXR	33	96	4	96	48	2
HLD	33	336	1	240
TAP	34	48	2
TAP	34	96	2
TAP	34	192	7
HLD	34	240	7	96
TAP	34	336	3
STR	35	0	3
SUL	35	0	3	96	48	7
STR	35	0	7
SUL	35	0	7	96	48	3
STR	35	96	3
SXL	35	96	3	96	48	5
STR	35	96	7
SXL	35	96	7	96	48	1
HLD	35	336	6	240
TAP	36	48	5
TAP	36	96	5
TAP	36	192	0
TAP	36	288	7
STR	37	0	1
SUR	37	0	1	96	48	5
STR	37	0	5
SUR	37	0	5	96	48	1
STR	37	96	1
SCL	37	96	1	96	48	6
STR	37	96	5
SUR	37	96	5	96	48	2
HLD	37	336	3	144
TAP	38	48	5
STR	38	96	5
SUR	38	96	5	96	48	2
STR	38	192	2
SUL	38	192	2	96	48	5
TAP	39	0	1
TAP	39	48	7
TAP	39	72	0
TAP	39	96	7
TAP	39	144	2
TAP	39	192	6
TAP	39	240	0
TAP	39	264	7
TAP	39	288	0
TAP	39	336	5
TAP	40	0	7
TAP	40	48	6
TAP	40	96	5
TAP	40	144	4
TAP	40	192	3
TAP	40	240	2
TAP	40	240	5
TAP	40	288	1
TAP	40	288	6
TAP	40	336	0
TAP	40	336	7
STR	41	0	6
SXR	41	0	6	96	192	2
STR	42	0	1
SCR	42	0	1	96	96	4
STR	42	96	6
SCL	42	96	6	96	144	2
STR	43	0	1
SXL	43	0	1	96	192	5
STR	44	0	3
SXL	44	0	3	96	192	3
SXR	44	0	3	96	192	3
STR	45	0	3
SXL	45	0	3	96	192	7
STR	46	0	6
SCL	46	0	6	96	96	3
STR	46	96	1
SCR	46	96	1	96	144	5
STR	47	0	7
SXL	47	0	7	96	192	3
STR	48	0	0
SCR	48	0	0	96	48	2
STR	48	0	7
SCL	48	0	7	96	48	5
STR	48	96	0
SUR	48	96	0	96	96	4
STR	48	96	7
SUL	48	96	7	96	96	3
TAP	49	0	2
TAP	49	48	2
TAP	49	96	3
TAP	49	144	4
TAP	49	192	4
TAP	49	288	5
TAP	49	336	5
TAP	50	0	4
TAP	50	48	3
TAP	50	96	3
HLD	50	192	0	144
TAP	50	288	7
TAP	50	336	7
TAP	51	0	1
TAP	51	0	6
HLD	51	96	1	48
HLD	51	144	6	48
HLD	51	192	0	48
HLD	51	240	7	48
HLD	51	288	3	48
TAP	51	336	7
TAP	52	0	2
TAP	52	0	6
TAP	52	48	0
TAP	52	48	4
TAP	52	96	1
TAP	52	96	5
TAP	52	144	3
TAP	52	144	7
STR	52	192	1
SUR	52	192	1	96	96	5
STR	52	192	5
SUR	52	192	5	96	96	1
STR	52	288	1
SCL	52	288	1	96	192	5
STR	52	288	5
SCL	52	288	5	96	192	1
TAP	53	288	2
TAP	53	288	6
TAP	53	336	3
TAP	53	336	7
STR	54	0	0
SCL	54	0	0	96	96	4
TAP	54	0	4
STR	54	96	4
SCL	54	96	4	96	96	0
STR	54	192	0
SCL	54	192	0	96	96	4
STR	54	288	4
SUL	54	288	4	96	288	0
SUR	54	288	4	96	288	0
TAP	56	0	3
TAP	56	0	4
TAP	56	48	3
TAP	56	48	4
TAP	56	144	1
TAP	56	144	6
TAP	56	240	0
TAP	56	240	7
TAP	56	288	2
TAP	56	288	5
HLD	57	0	2	144
TAP	57	96	1
HLD	57	144	1	96
TAP	57	240	2
TAP	57	288	3
TAP	57	336	4
HLD	58	0	6	192
TAP	58	48	5
TAP	58	96	4
TAP	58	144	3
STR	58	192	2
SCR	58	192	2	96	48	5
TAP	58	288	2
HLD	59	0	0	144
TAP	59	96	6
HLD	59	144	6	96
TAP	59	240	5
TAP	59	288	4
TAP	59	336	3
TAP	60	0	0
TAP	60	48	7
TAP	60	96	1
TAP	60	144	6
STR	60	192	2
SI_	60	192	2	96	48	7
STR	60	192	5
SI_	60	192	5	96	48	0
BRK	60	288	2
BRK	60	288	5
HLD	61	0	5	144
TAP	61	96	6
HLD	61	144	6	96
TAP	61	240	5
TAP	61	288	4
TAP	61	336	3
HLD	62	0	2	192
TAP	62	96	3
TAP	62	144	4
STR	62	192	5
SI_	62	192	5	96	48	2
TAP	62	288	5
HLD	63	0	0	144
TAP	63	96	6
HLD	63	144	6	96
TAP	63	240	5
TAP	63	288	4
TAP	63	336	3
TAP	64	0	1
TAP	64	0	6
TAP	64	48	1
TAP	64	48	6
TAP	64	96	3
TAP	64	96	4
TAP	64	144	3
TAP	64	144	4
STR	64	192	0
SI_	64	192	0	96	48	4
STR	64	192	7
SI_	64	192	7	96	48	3
BRK	64	288	0
BRK	64	288	7
STR	65	0	1
SCR	65	0	1	96	96	4
TAP	65	96	0
TAP	65	144	7
STR	65	192	6
SCL	65	192	6	96	96	3
TAP	65	288	7
TAP	65	336	0
TAP	66	0	1
TAP	66	96	0
TAP	66	144	4
TAP	66	192	1
TAP	66	240	5
TAP	66	288	2
TAP	66	336	6
STR	67	0	3
SCL	67	0	3	96	96	0
TAP	67	96	7
TAP	67	144	6
STR	67	192	5
SCR	67	192	5	96	96	0
TAP	67	288	1
TAP	67	336	2
TAP	68	0	3
TAP	68	48	4
TAP	68	96	5
TAP	68	144	6
STR	68	192	7
SI_	68	192	7	96	48	3
TAP	68	288	7
STR	69	0	0
SCL	69	0	0	96	96	5
TAP	69	96	1
TAP	69	144	2
STR	69	192	3
SCR	69	192	3	96	96	6
TAP	69	288	2
TAP	69	336	1
STR	70	0	0
SCR	70	0	0	96	96	3
TAP	70	96	4
TAP	70	144	5
STR	70	192	6
SCR	70	192	6	96	96	1
TAP	70	288	5
TAP	70	336	4
STR	71	0	3
SCL	71	0	3	96	192	4
TAP	72	0	0
TAP	72	48	0
TAP	72	96	0
TAP	72	144	1
TAP	72	144	7
TAP	72	192	2
TAP	72	192	6
TAP	72	240	3
TAP	72	240	5
TAP	72	288	4
TAP	72	336	4
TAP	73	48	6
TAP	73	96	7
TAP	73	144	5
TAP	73	192	0
TAP	73	240	4
TAP	73	288	1
TAP	73	336	3
TAP	75	0	0
TAP	75	48	1
STR	75	96	2
SCR	75	96	2	96	48	5
TAP	75	144	1
HLD	75	192	0	96
TAP	75	288	7
TAP	75	336	6
STR	76	0	5
SCL	76	0	5	96	48	2
TAP	76	48	6
HLD	76	96	7	96
STR	76	192	0
SCR	76	192	0	96	48	2
TAP	76	288	7
TAP	76	336	6
HLD	77	0	5	96
HLD	77	96	4	48
HLD	77	144	6	48
HLD	77	192	3	48
HLD	77	240	7	48
TAP	77	288	2
TAP	77	336	0
TAP	78	0	1
TAP	78	48	2
STR	78	96	3
SXL	78	96	3	96	96	3
SXR	78	96	3	96	96	3
TAP	78	144	3
TAP	79	0	7
TAP	79	48	6
STR	79	96	5
SCL	79	96	5	96	48	2
TAP	79	144	6
HLD	79	192	7	96
TAP	79	288	0
TAP	79	336	1
STR	80	0	2
SCR	80	0	2	96	48	5
TAP	80	48	1
HLD	80	96	0	96
STR	80	192	7
SCL	80	192	7	96	48	5
TAP	80	288	0
TAP	80	336	1
HLD	81	0	2	96
HLD	81	96	3	48
HLD	81	144	1	48
HLD	81	192	4	48
HLD	81	240	0	48
TAP	81	288	5
TAP	81	336	7
STR	82	0	6
SI_	82	0	6	96	48	3
TAP	82	48	6
STR	82	96	1
SI_	82	96	1	96	48	4
TAP	82	144	1
BST	82	192	7
SF_	82	192	7	96	48	3
STR	83	0	0
SI_	83	0	0	96	48	4
STR	83	48	6
SI_	83	48	6	96	48	2
STR	83	96	0
SCL	83	96	0	96	48	5
TAP	83	144	6
TAP	83	192	0
STR	83	288	7
SI_	83	288	7	96	48	3
STR	83	336	1
SI_	83	336	1	96	48	5
STR	84	0	7
SCR	84	0	7	96	48	2
TAP	84	48	1
TAP	84	96	7
STR	84	192	0
SXL	84	192	0	96	48	2
STR	84	288	7
SXR	84	288	7	96	48	5
HLD	85	0	1	96
TAP	85	96	7
TAP	85	144	6
TAP	85	192	5
TAP	85	240	4
TAP	85	288	3
TAP	85	336	2
STR	86	0	0
SCL	86	0	0	96	48	5
STR	86	0	1
SCR	86	0	1	96	48	4
STR	86	96	0
SI_	86	96	0	96	48	4
STR	86	96	1
SI_	86	96	1	96	48	5
BRK	86	288	2
BRK	86	288	7
STR	87	0	4
SCR	87	0	4	96	192	3
HLD	88	0	3	288
TAP	88	0	4
TAP	88	96	6
TAP	88	192	0
TAP	88	288	2
STR	89	0	2
SCL	89	0	2	96	192	4
STR	89	0	3
SUR	89	0	3	96	192	4
TAP	90	0	0
TAP	90	24	1
TAP	90	48	2
TAP	90	72	3
TAP	90	96	4
TAP	90	120	5
TAP	90	144	6
TAP	90	168	7
TAP	90	192	0
TAP	90	208	1
TAP	90	224	2
TAP	90	240	3
TAP	90	256	4
TAP	90	272	5
TAP	90	288	6
TAP	90	304	7
TAP	90	320	0
TAP	90	336	1
TAP	90	352	2
TAP	90	368	3
TAP	91	0	7
TAP	91	48	3
TAP	91	96	6
TAP	91	144	2
TAP	91	192	5
TAP	91	240	1
TAP	91	288	4
TAP	91	336	0
TAP	92	0	7
TAP	92	48	0
TAP	92	96	6
TAP	92	144	1
STR	92	192	5
SCR	92	192	5	96	240	2
BRK	93	192	3
BRK	93	216	3

T_REC_TAP	394
T_REC_BRK	11
T_REC_XTP	0
T_REC_HLD	56
T_REC_XHO	0
T_REC_STR	103
T_REC_BST	1
T_REC_XST	0
T_REC_TTP	0
T_REC_THO	0
T_REC_SLD	110
T_REC_ALL	675
T_NUM_TAP	497
T_NUM_BRK	12
T_NUM_HLD	56
T_NUM_SLD	110
T_NUM_ALL	675
T_JUDGE_TAP	509
T_JUDGE_HLD	111
T_JUDGE_SLD	110
T_JUDGE_ALL	730
TTM_EACHPAIRS	65
TTM_SCR_TAP	248500
TTM_SCR_BRK	31200
TTM_SCR_HLD	56000
TTM_SCR_SLD	165000
TTM_SCR_ALL	500700
TTM_SCR_S	484550
TTM_SCR_SS	499500
TTM_RAT_ACV	10024

