VERSION	0.00.00	1.03.00
FES_MODE	0
BPM_DEF	168.000	168.000	168.000	168.000
MET_DEF	4	4
RESOLUTION	384
CLK_DEF	384
COMPATIBLE_CODE	MA2

BPM	0	0	168.000
MET	0	0	4	4

HLD	1	0	0	192
HLD	1	192	6	192
HLD	2	0	4	192
HLD	2	192	2	192
TAP	3	0	7
TAP	3	96	1
TAP	3	192	3
TAP	3	288	5
TAP	4	0	0
TAP	4	0	7
HLD	4	192	1	144
TAP	4	288	0
HLD	4	336	0	144
HLD	5	192	6	144
TAP	5	288	7
HLD	5	336	7	144
HLD	6	192	3	144
TAP	6	288	4
HLD	6	336	4	144
TAP	7	192	3
TAP	7	192	4
TAP	7	288	1
TAP	7	288	6
HLD	7	336	1	144
HLD	7	336	6	144
BRK	8	192	0
BRK	8	192	7
TAP	9	0	0
TAP	9	0	1
TAP	9	96	6
TAP	9	96	7
TAP	9	192	2
TAP	9	240	3
TAP	9	288	4
TAP	10	0	6
TAP	10	0	7
TAP	10	96	0
TAP	10	96	1
TAP	10	192	5
TAP	10	240	4
TAP	10	288	3
TAP	11	0	4
TAP	11	0	5
TAP	11	96	2
TAP	11	96	3
TAP	11	192	6
TAP	11	240	7
TAP	11	288	0
TAP	11	336	1
HLD	12	0	5	96
HLD	12	96	4	96
HLD	12	192	3	96
TAP	12	288	2
HLD	13	0	0	96
HLD	13	0	1	96
TAP	13	144	2
TAP	13	144	7
TAP	13	240	1
TAP	13	288	0
TAP	14	0	6
TAP	14	0	7
TAP	14	48	6
TAP	14	48	7
TAP	14	144	0
TAP	14	144	5
TAP	14	240	6
TAP	14	288	7
TAP	15	0	0
TAP	15	48	4
TAP	15	96	1
TAP	15	144	5
TAP	15	192	2
TAP	15	240	6
TAP	15	288	3
TAP	15	336	7
TAP	16	0	0
TAP	16	0	1
TAP	16	96	6
TAP	16	96	7
TAP	16	192	0
TAP	16	192	7
BRK	16	288	1
BRK	16	288	6
STR	17	0	1
SCL	17	0	1	96	192	6
STR	18	0	5
SUR	18	0	5	96	192	2
STR	19	0	3
SCL	19	0	3	96	192	4
TAP	20	0	7
TAP	20	96	7
TAP	20	192	0
TAP	20	288	0
STR	21	0	6
SXL	21	0	6	96	192	2
STR	22	0	1
SXR	22	0	1	96	192	5
TAP	23	0	1
TAP	23	0	6
TAP	23	96	0
TAP	23	144	7
TAP	23	192	0
TAP	23	288	7
TAP	23	336	0
TAP	24	48	1
TAP	24	48	6
TAP	24	144	2
TAP	24	144	5
BRK	24	240	0
BRK	24	240	7
BRK	24	288	0
BRK	24	288	7
TAP	25	0	2
TAP	25	48	3
TAP	25	96	2
TAP	25	192	5
TAP	25	240	4
TAP	25	288	5
TAP	26	0	1
TAP	26	48	3
TAP	26	96	2
TAP	26	192	6
TAP	26	240	4
TAP	26	288	5
TAP	27	0	1
TAP	27	48	0
TAP	27	96	1
TAP	27	192	6
TAP	27	240	7
TAP	27	288	6
TAP	28	0	2
TAP	28	48	0
TAP	28	96	1
TAP	28	192	5
TAP	28	240	7
TAP	28	288	6
TAP	29	0	2
TAP	29	48	3
TAP	29	96	1
TAP	29	96	4
TAP	29	192	5
TAP	29	240	4
TAP	29	288	3
TAP	29	288	6
TAP	30	0	1
TAP	30	48	0
TAP	30	96	2
TAP	30	96	7
TAP	30	192	6
TAP	30	240	7
TAP	30	288	0
TAP	30	288	5
TAP	31	0	0
TAP	31	0	1
TAP	31	96	2
TAP	31	96	3
TAP	31	192	4
TAP	31	192	5
TAP	31	288	6
TAP	31	288	7
TAP	32	0	0
TAP	32	0	7
TAP	32	96	1
TAP	32	96	6
TAP	32	192	2
TAP	32	192	5
BRK	32	288	0
STR	33	0	1
SI_	33	0	1	96	48	4
STR	33	192	0
SI_	33	192	0	96	48	5
TAP	34	0	4
TAP	34	96	3
TAP	34	96	6
TAP	34	192	2
TAP	34	192	7
TAP	34	288	0
TAP	34	288	1
STR	35	0	6
SI_	35	0	6	96	48	3
STR	35	192	7
SI_	35	192	7	96	48	2
TAP	36	0	3
TAP	36	96	1
TAP	36	96	4
TAP	36	192	0
TAP	36	192	5
TAP	36	288	6
TAP	36	288	7
STR	37	0	1
SCR	37	0	1	96	48	4
STR	37	192	0
SCL	37	192	0	96	48	5
TAP	38	0	4
TAP	38	96	5
TAP	38	192	4
TAP	38	192	5
STR	38	288	6
SXR	38	288	6	96	288	3
STR	38	288	7
SXL	38	288	7	96	288	2
TAP	40	0	0
TAP	40	96	7
TAP	40	192	2
TAP	40	240	3
TAP	40	288	4
STR	41	0	6
SUL	41	0	6	96	288	3
TAP	42	0	1
STR	42	96	1
SCR	42	96	1	96	144	4
TAP	43	0	7
TAP	43	96	0
TAP	43	96	6
TAP	43	192	1
TAP	43	192	5
TAP	43	288	2
TAP	43	288	4
TAP	44	0	3
TAP	44	96	1
TAP	44	96	5
TAP	44	192	7
STR	45	0	1
SUR	45	0	1	96	288	4
TAP	46	0	6
STR	46	96	6
SCL	46	96	6	96	144	3
TAP	47	0	0
TAP	47	96	1
TAP	47	96	7
TAP	47	192	2
TAP	47	192	6
TAP	47	288	3
TAP	47	288	5
TAP	48	0	4
TAP	48	96	0
TAP	48	192	2
TAP	48	192	6
TAP	49	0	0
TAP	49	48	7
TAP	49	96	1
TAP	49	144	6
TAP	49	192	2
TAP	49	288	4
TAP	49	336	3
TAP	50	0	5
TAP	50	48	2
TAP	50	96	6
BRK	50	192	0
BRK	50	288	7
STR	51	0	1
SLL	51	0	1	96	192	5
SLR	51	0	1	96	192	5
STR	52	0	7
SUL	52	0	7	96	192	3
SUR	52	0	7	96	192	3
HLD	53	0	0	288
HLD	53	192	4	96
HLD	54	0	2	96
HLD	54	96	4	96
HLD	54	192	0	96
TAP	54	288	6
STR	55	0	0
SI_	55	0	0	96	48	4
STR	55	0	1
SI_	55	0	1	96	48	4
STR	55	192	6
SI_	55	192	6	96	48	3
STR	55	192	7
SI_	55	192	7	96	48	3
TAP	56	0	2
TAP	56	48	3
TAP	56	144	4
TAP	56	144	5
TAP	56	240	0
TAP	56	240	7
BRK	56	288	0
BRK	56	288	7
HLD	57	0	0	96
HLD	57	96	1	96
TAP	57	192	2
TAP	57	240	2
TAP	57	288	2
TAP	58	0	6
TAP	58	48	7
TAP	58	96	6
TAP	58	144	7
TAP	58	192	0
TAP	58	192	5
TAP	58	288	6
TAP	58	288	7
HLD	59	0	7	96
HLD	59	96	6	96
TAP	59	192	5
TAP	59	240	5
TAP	59	288	5
TAP	60	0	1
TAP	60	48	0
TAP	60	96	1
TAP	60	144	0
TAP	60	192	2
TAP	60	192	7
BRK	60	288	0
BRK	60	288	1
HLD	61	0	3	96
HLD	61	96	2	96
TAP	61	192	1
TAP	61	240	1
TAP	61	288	1
TAP	62	0	6
TAP	62	48	7
TAP	62	96	5
TAP	62	144	0
TAP	62	192	1
TAP	62	192	4
TAP	62	288	2
TAP	62	288	3
HLD	63	0	4	96
HLD	63	96	5	96
TAP	63	192	6
TAP	63	240	6
TAP	63	288	6
TAP	64	0	1
TAP	64	48	0
TAP	64	96	2
TAP	64	144	7
TAP	64	192	3
TAP	64	192	6
BRK	64	288	4
BRK	64	288	5
HLD	65	0	2	96
TAP	65	96	7
TAP	65	144	6
TAP	65	192	6
TAP	65	288	0
TAP	65	336	1
TAP	66	0	1
TAP	66	96	7
TAP	66	144	0
TAP	66	192	6
TAP	66	240	1
TAP	66	288	5
TAP	66	336	2
HLD	67	0	4	96
TAP	67	96	7
TAP	67	144	0
TAP	67	192	0
TAP	67	288	0
TAP	67	336	7
TAP	68	0	7
TAP	68	48	0
TAP	68	96	6
TAP	68	144	1
TAP	68	192	2
TAP	68	192	5
TAP	68	288	0
TAP	68	288	7
TAP	69	0	2
TAP	69	96	2
TAP	69	96	3
TAP	69	144	3
TAP	69	144	4
TAP	69	192	4
TAP	69	192	5
TAP	69	288	4
TAP	69	288	5
TAP	69	336	3
TAP	69	336	4
TAP	70	0	2
TAP	70	0	3
TAP	70	96	1
TAP	70	96	3
TAP	70	144	2
TAP	70	144	4
TAP	70	192	3
TAP	70	192	5
TAP	70	288	4
TAP	70	288	6
TAP	70	336	3
TAP	70	336	5
STR	71	0	2
SUR	71	0	2	96	192	5
TAP	71	0	4
TAP	72	0	0
TAP	72	96	4
TAP	72	192	1
TAP	72	192	7
TAP	72	240	2
TAP	72	240	6
TAP	72	288	3
TAP	72	288	5
TAP	73	0	4
TAP	73	96	0
TAP	73	192	3
TAP	73	192	5
TAP	73	240	2
TAP	73	240	6
TAP	73	288	1
TAP	73	288	7
TAP	73	336	1
TAP	73	336	7
TAP	75	0	3
TAP	75	48	7
TAP	75	96	2
TAP	75	96	6
TAP	75	144	1
TAP	75	144	5
TAP	75	192	0
TAP	75	192	4
TAP	75	288	4
TAP	75	336	0
TAP	76	0	1
TAP	76	0	5
TAP	76	48	2
TAP	76	48	6
STR	76	96	3
SCL	76	96	3	96	96	0
STR	76	96	7
SCL	76	96	7	96	96	4
TAP	77	0	4
TAP	77	96	0
TAP	77	144	0
TAP	77	192	6
TAP	77	240	6
TAP	77	288	2
TAP	77	336	2
TAP	78	0	7
TAP	78	48	0
TAP	78	96	7
TAP	78	144	0
BRK	78	192	2
BRK	78	192	5
TAP	79	0	4
TAP	79	48	0
TAP	79	96	1
TAP	79	96	5
TAP	79	144	2
TAP	79	144	6
TAP	79	192	3
TAP	79	192	7
TAP	79	288	3
TAP	79	336	7
TAP	80	0	2
TAP	80	0	6
TAP	80	48	1
TAP	80	48	5
STR	80	96	0
SCR	80	96	0	96	96	3
STR	80	96	4
SCR	80	96	4	96	96	7
TAP	81	0	3
TAP	81	96	7
TAP	81	144	7
TAP	81	192	2
TAP	81	240	2
TAP	81	288	6
TAP	81	336	6
TAP	82	0	0
TAP	82	48	7
TAP	82	96	0
TAP	82	144	7
BRK	82	192	2
BRK	82	192	5
TAP	83	0	1
TAP	83	0	5
TAP	83	48	1
TAP	83	48	5
TAP	83	96	2
TAP	83	96	6
TAP	83	144	3
TAP	83	144	7
TAP	83	192	0
TAP	83	192	4
TAP	83	288	2
TAP	83	288	6
TAP	83	336	2
TAP	83	336	6
TAP	84	0	1
TAP	84	0	5
TAP	84	48	0
TAP	84	48	4
STR	84	96	3
SCR	84	96	3	96	96	6
STR	84	96	7
SCR	84	96	7	96	96	2
TAP	85	0	1
TAP	85	96	0
TAP	85	144	0
TAP	85	192	7
TAP	85	240	7
TAP	85	288	0
TAP	85	336	0
TAP	86	0	0
TAP	86	0	7
TAP	86	48	1
TAP	86	48	6
TAP	86	96	2
TAP	86	96	5
TAP	86	144	3
TAP	86	144	4
BRK	86	192	1
BRK	86	192	6
HLD	87	0	0	96
HLD	87	96	2	96
HLD	87	192	4	96
TAP	87	288	6
HLD	88	0	7	96
HLD	88	96	5	96
HLD	88	192	3	96
TAP	88	288	1
STR	89	0	0
SCR	89	0	0	96	192	7
TAP	90	0	0
TAP	90	48	7
TAP	90	96	1
TAP	90	144	6
TAP	90	192	2
TAP	90	240	5
TAP	90	288	3
TAP	90	336	4
TAP	91	0	0
TAP	91	48	7
TAP	91	96	0
TAP	91	144	7
TAP	91	192	0
TAP	91	240	1
TAP	91	288	2
TAP	91	336	3
TAP	92	0	4
TAP	92	48	5
TAP	92	96	6
TAP	92	144	7
HLD	92	192	0	384
BRK	93	192	7

T_REC_TAP	407
T_REC_BRK	24
T_REC_XTP	0
T_REC_HLD	39
T_REC_XHO	0
T_REC_STR	31
T_REC_BST	0
T_REC_XST	0
T_REC_TTP	0
T_REC_THO	0
T_REC_SLD	33
T_REC_ALL	534
T_NUM_TAP	438
T_NUM_BRK	24
T_NUM_HLD	39
T_NUM_SLD	33
T_NUM_ALL	534
T_JUDGE_TAP	462
T_JUDGE_HLD	104
T_JUDGE_SLD	33
T_JUDGE_ALL	599
TTM_EACHPAIRS	115
TTM_SCR_TAP	219000
TTM_SCR_BRK	62400
TTM_SCR_HLD	39000
TTM_SCR_SLD	49500
TTM_SCR_ALL	369900
TTM_SCR_S	356500
TTM_SCR_SS	367500
TTM_RAT_ACV	10065

