VERSION	0.00.00	1.03.00
FES_MODE	0
BPM_DEF	168.000	168.000	168.000	168.000
MET_DEF	4	4
RESOLUTION	384
CLK_DEF	384
COMPATIBLE_CODE	MA2

BPM	0	0	168.000
MET	0	0	4	4

TAP	1	0	7
TAP	1	192	5
TAP	2	0	3
TAP	2	192	1
TAP	3	0	6
TAP	3	96	7
TAP	3	192	0
TAP	3	288	1
BRK	4	0	0
BRK	4	0	7
TAP	5	0	2
TAP	5	192	3
TAP	6	0	2
TAP	6	96	3
TAP	6	192	2
TAP	6	192	3
TAP	7	0	5
TAP	7	192	4
TAP	8	0	5
TAP	8	96	4
BRK	8	192	4
BRK	8	192	5
TAP	9	0	0
TAP	9	96	1
TAP	9	192	2
TAP	9	288	3
TAP	10	0	7
TAP	10	96	6
TAP	10	192	5
TAP	10	288	4
TAP	11	0	2
TAP	11	96	1
TAP	11	192	0
TAP	11	288	7
TAP	12	0	5
TAP	12	96	6
TAP	12	192	7
TAP	12	288	0
STR	13	0	7
SI_	13	0	7	96	144	3
TAP	13	288	1
STR	14	0	0
SI_	14	0	0	96	144	4
TAP	14	288	6
TAP	15	0	0
TAP	15	96	7
TAP	15	192	1
TAP	15	288	6
TAP	16	0	2
TAP	16	96	5
TAP	16	192	3
TAP	16	192	4
BRK	16	288	1
BRK	16	288	6
HLD	17	0	2	192
TAP	17	192	3
HLD	18	0	5	192
TAP	18	192	4
STR	19	0	7
SUL	19	0	7	96	288	4
TAP	20	0	3
TAP	20	96	2
TAP	20	192	1
TAP	20	288	0
HLD	21	0	7	192
TAP	21	192	6
HLD	22	0	0	192
TAP	22	192	1
TAP	23	0	3
TAP	23	0	4
TAP	23	96	2
TAP	23	96	5
TAP	23	192	1
TAP	23	192	6
TAP	23	288	0
TAP	23	288	7
TAP	24	0	2
TAP	24	0	5
TAP	24	96	1
TAP	24	96	6
BRK	24	192	0
BRK	24	192	7
TAP	25	0	0
TAP	25	96	2
TAP	25	192	4
TAP	25	288	6
TAP	26	0	7
TAP	26	96	5
TAP	26	192	3
TAP	26	288	1
TAP	27	0	7
TAP	27	96	2
TAP	27	192	6
TAP	27	288	3
TAP	28	0	1
TAP	28	96	4
TAP	28	192	0
TAP	28	288	5
TAP	29	0	6
TAP	29	96	5
TAP	29	192	4
TAP	29	288	3
TAP	30	0	1
TAP	30	96	2
TAP	30	192	3
STR	30	288	4
SCR	30	288	4	96	288	3
TAP	32	0	1
TAP	32	96	0
TAP	32	192	7
BRK	32	288	6
STR	33	0	7
SI_	33	0	7	96	96	4
STR	33	192	3
SI_	33	192	3	96	96	0
TAP	34	0	7
TAP	34	96	6
TAP	34	192	5
TAP	34	288	4
STR	35	0	3
SI_	35	0	3	96	96	0
STR	35	192	7
SI_	35	192	7	96	96	4
TAP	36	0	3
TAP	36	96	2
TAP	36	192	1
TAP	36	288	0
STR	37	0	7
SI_	37	0	7	96	96	3
STR	37	192	1
SI_	37	192	1	96	96	5
TAP	38	0	7
TAP	38	96	0
TAP	38	192	6
TAP	38	288	1
STR	39	0	0
SXL	39	0	0	96	288	3
STR	39	0	7
SXR	39	0	7	96	288	4
HLD	41	0	2	192
HLD	41	192	3	192
TAP	42	0	4
TAP	42	96	5
TAP	42	192	4
TAP	42	288	3
TAP	43	0	2
TAP	43	96	1
TAP	43	192	0
TAP	43	288	7
TAP	44	0	6
TAP	44	96	5
BRK	44	192	0
BRK	44	192	7
HLD	45	0	5	192
HLD	45	192	4	192
TAP	46	0	3
TAP	46	96	2
TAP	46	192	3
TAP	46	288	4
TAP	47	0	5
TAP	47	96	6
TAP	47	192	7
TAP	47	288	0
TAP	48	0	1
TAP	48	96	2
TAP	48	192	0
TAP	48	192	7
TAP	49	0	0
TAP	49	96	1
TAP	49	96	7
TAP	49	192	2
TAP	49	192	6
TAP	50	0	7
TAP	50	96	0
TAP	50	96	6
TAP	50	192	1
TAP	50	192	5
TAP	51	0	0
TAP	51	0	4
TAP	51	96	0
TAP	51	96	4
TAP	51	192	1
TAP	51	192	5
TAP	51	288	1
TAP	51	288	5
TAP	52	0	2
TAP	52	0	6
TAP	52	96	2
TAP	52	96	6
TAP	52	192	3
TAP	52	192	7
STR	53	0	3
SCL	53	0	3	96	192	0
STR	53	0	7
SCL	53	0	7	96	192	4
TAP	54	0	0
TAP	54	96	4
TAP	54	192	2
STR	54	288	6
SXL	54	288	6	96	288	3
TAP	56	0	2
TAP	56	96	2
TAP	56	192	2
TAP	56	192	5
BRK	56	288	0
BRK	56	288	7
TAP	57	0	2
TAP	57	0	3
TAP	57	96	1
TAP	57	96	4
TAP	57	192	2
TAP	57	240	2
TAP	57	288	2
TAP	58	0	2
TAP	58	0	3
TAP	58	96	0
TAP	58	96	1
TAP	58	192	6
TAP	58	192	7
TAP	58	288	4
TAP	58	288	5
TAP	59	0	4
TAP	59	0	5
TAP	59	96	3
TAP	59	96	6
TAP	59	192	5
TAP	59	240	5
TAP	59	288	5
TAP	60	0	1
TAP	60	0	6
TAP	60	96	2
TAP	60	96	5
BRK	60	192	0
BRK	60	192	7
TAP	61	0	2
TAP	61	0	3
TAP	61	96	1
TAP	61	96	4
TAP	61	192	2
TAP	61	240	3
TAP	61	288	2
TAP	62	0	4
TAP	62	48	4
TAP	62	96	3
TAP	62	144	3
TAP	62	192	3
TAP	62	192	4
TAP	62	288	2
TAP	62	288	5
TAP	63	0	4
TAP	63	0	5
TAP	63	96	3
TAP	63	96	6
TAP	63	192	5
TAP	63	240	4
TAP	63	288	5
TAP	64	0	0
TAP	64	0	7
TAP	64	96	0
TAP	64	96	7
TAP	64	192	2
TAP	64	192	5
BRK	64	288	0
HLD	65	0	1	192
HLD	65	192	0	192
HLD	66	0	7	192
TAP	66	192	6
TAP	67	0	1
TAP	67	96	2
TAP	67	192	3
TAP	67	288	4
TAP	68	0	6
TAP	68	96	5
TAP	68	192	3
TAP	68	192	4
HLD	69	0	2	192
HLD	69	192	3	192
HLD	70	0	4	192
TAP	70	192	5
STR	70	288	5
SXL	70	288	5	96	384	1
STR	73	0	2
SXR	73	0	2	96	288	6
TAP	75	0	2
TAP	75	96	3
TAP	75	192	1
TAP	75	192	4
TAP	75	288	3
TAP	75	288	4
TAP	76	0	5
TAP	76	96	4
TAP	76	192	3
TAP	76	192	6
TAP	76	288	3
TAP	76	288	4
TAP	77	0	0
TAP	77	96	7
TAP	77	192	2
TAP	77	288	5
BRK	78	0	1
BRK	78	0	6
BRK	78	96	3
BRK	78	96	4
BRK	78	192	1
BRK	78	192	6
TAP	79	0	1
TAP	79	96	0
TAP	79	192	2
TAP	79	192	7
TAP	79	288	0
TAP	79	288	7
TAP	80	0	6
TAP	80	96	7
TAP	80	192	0
TAP	80	192	5
TAP	80	288	0
TAP	80	288	7
HLD	81	0	1	96
TAP	81	96	0
HLD	81	192	6	96
TAP	81	288	7
BRK	82	0	0
BRK	82	0	7
BRK	82	96	2
BRK	82	96	5
BRK	82	192	0
BRK	82	192	7
TAP	83	0	1
TAP	83	96	0
TAP	83	192	0
TAP	83	192	7
TAP	83	288	6
TAP	83	288	7
TAP	84	0	6
TAP	84	96	7
TAP	84	192	0
TAP	84	192	7
TAP	84	288	0
TAP	84	288	1
TAP	85	0	2
TAP	85	96	3
TAP	85	192	4
TAP	85	288	5
TAP	86	0	0
TAP	86	0	7
TAP	86	96	2
TAP	86	96	5
TAP	86	192	1
TAP	86	192	6
BRK	86	288	3
BRK	86	288	4
TAP	87	0	7
TAP	87	96	3
TAP	87	192	5
TAP	87	288	1
TAP	88	0	3
TAP	88	0	7
TAP	88	96	2
TAP	88	96	6
TAP	88	192	1
TAP	88	192	5
TAP	88	288	0
STR	88	288	4
SCR	88	288	4	96	384	3
TAP	91	0	1
TAP	91	96	0
TAP	91	192	7
TAP	91	288	6
TAP	92	0	7
TAP	92	96	0
HLD	92	192	1	384
BRK	93	192	0

T_REC_TAP	288
T_REC_BRK	31
T_REC_XTP	0
T_REC_HLD	17
T_REC_XHO	0
T_REC_STR	18
T_REC_BST	0
T_REC_XST	0
T_REC_TTP	0
T_REC_THO	0
T_REC_SLD	18
T_REC_ALL	372
T_NUM_TAP	306
T_NUM_BRK	31
T_NUM_HLD	17
T_NUM_SLD	18
T_NUM_ALL	372
T_JUDGE_TAP	337
T_JUDGE_HLD	68
T_JUDGE_SLD	18
T_JUDGE_ALL	423
TTM_EACHPAIRS	76
TTM_SCR_TAP	153000
TTM_SCR_BRK	80600
TTM_SCR_HLD	17000
TTM_SCR_SLD	27000
TTM_SCR_ALL	277600
TTM_SCR_S	266300
TTM_SCR_SS	274500
TTM_RAT_ACV	10112

