VERSION	0.00.00	1.03.00
FES_MODE	0
BPM_DEF	168.000	168.000	168.000	168.000
MET_DEF	4	4
RESOLUTION	384
CLK_DEF	384
COMPATIBLE_CODE	MA2

BPM	0	0	168.000
MET	0	0	4	4

TAP	1	0	0
TAP	2	0	0
TAP	3	0	7
TAP	4	0	7
TAP	5	0	0
TAP	5	192	0
TAP	6	0	0
TAP	7	0	7
TAP	7	192	7
TAP	8	0	7
TAP	9	0	0
TAP	9	192	1
TAP	10	0	2
TAP	11	0	3
TAP	11	192	4
TAP	12	0	5
TAP	13	0	6
TAP	13	192	6
TAP	14	0	7
TAP	14	192	7
TAP	15	0	0
TAP	15	192	0
TAP	16	0	0
TAP	16	0	7
TAP	16	96	0
TAP	16	96	7
TAP	16	192	0
TAP	16	192	7
BRK	17	0	0
TAP	17	192	0
TAP	18	0	1
TAP	18	192	1
HLD	19	0	2	384
TAP	21	0	1
TAP	21	192	1
TAP	22	0	0
TAP	22	192	0
TAP	23	0	7
TAP	23	192	7
TAP	24	0	0
TAP	24	0	7
TAP	24	96	0
TAP	24	96	7
TAP	24	192	0
TAP	24	192	7
TAP	25	0	7
TAP	25	192	7
TAP	26	0	6
TAP	26	192	6
HLD	27	0	5	384
TAP	29	0	4
TAP	29	192	4
TAP	30	0	3
TAP	30	192	3
TAP	31	0	4
TAP	31	192	3
TAP	32	0	4
BRK	32	192	3
STR	33	0	2
SI_	33	0	2	96	288	5
STR	35	0	6
SI_	35	0	6	96	288	1
STR	37	0	0
SI_	37	0	0	96	288	3
STR	39	0	4
SI_	39	0	4	96	288	7
HLD	41	0	0	384
TAP	42	192	0
HLD	43	0	7	384
TAP	44	192	7
HLD	45	0	6	384
TAP	46	192	6
HLD	47	0	5	384
TAP	48	192	5
TAP	49	0	4
TAP	49	192	4
TAP	50	0	3
TAP	50	192	3
TAP	51	0	2
TAP	51	192	2
TAP	52	0	1
TAP	52	192	1
HLD	53	0	0	384
HLD	53	0	7	384
TAP	54	192	0
TAP	54	192	7
HLD	55	0	1	384
HLD	55	0	6	384
TAP	57	0	0
TAP	57	192	1
TAP	58	0	2
TAP	58	96	2
TAP	58	192	2
TAP	59	0	0
TAP	59	192	7
TAP	60	0	6
TAP	60	96	6
TAP	60	192	6
TAP	61	0	7
TAP	61	192	6
TAP	62	0	5
TAP	62	96	5
TAP	62	192	5
TAP	63	0	7
TAP	63	192	0
TAP	64	0	0
TAP	64	0	7
TAP	64	96	0
TAP	64	96	7
TAP	64	192	0
TAP	64	192	7
BRK	65	0	1
TAP	65	192	1
TAP	66	0	2
TAP	66	192	2
TAP	67	0	3
TAP	67	192	3
TAP	68	0	4
TAP	68	96	4
TAP	68	192	4
TAP	69	0	5
TAP	69	192	5
TAP	70	0	6
TAP	70	192	6
HLD	71	0	7	192
TAP	72	0	0
TAP	72	0	7
STR	73	0	0
SI_	73	0	0	96	288	3
STR	73	0	7
SI_	73	0	7	96	288	4
TAP	75	0	3
TAP	75	96	3
TAP	75	192	3
TAP	76	0	2
TAP	76	96	2
TAP	76	192	2
TAP	77	0	4
TAP	77	96	4
TAP	77	192	4
TAP	78	0	5
TAP	78	96	5
BRK	78	192	5
TAP	79	0	7
TAP	79	96	7
TAP	79	192	7
TAP	80	0	6
TAP	80	96	6
TAP	80	192	6
TAP	81	0	0
TAP	81	96	0
TAP	81	192	0
TAP	82	0	1
TAP	82	96	1
BRK	82	192	1
TAP	83	0	0
TAP	83	96	0
TAP	83	192	0
TAP	83	192	7
TAP	84	0	7
TAP	84	96	7
TAP	84	192	0
TAP	84	192	7
TAP	85	0	0
TAP	85	96	0
TAP	85	192	7
TAP	85	288	7
TAP	86	0	0
TAP	86	96	7
BRK	86	192	0
TAP	87	0	0
TAP	87	192	0
TAP	88	0	7
TAP	88	192	7
HLD	89	0	1	384
HLD	89	0	6	384
TAP	91	0	7
TAP	91	96	7
TAP	91	192	7
TAP	92	0	0
TAP	92	96	0
HLD	92	192	0	384

T_REC_TAP	150
T_REC_BRK	6
T_REC_XTP	0
T_REC_HLD	14
T_REC_XHO	0
T_REC_STR	6
T_REC_BST	0
T_REC_XST	0
T_REC_TTP	0
T_REC_THO	0
T_REC_SLD	6
T_REC_ALL	182
T_NUM_TAP	156
T_NUM_BRK	6
T_NUM_HLD	14
T_NUM_SLD	6
T_NUM_ALL	182
T_JUDGE_TAP	162
T_JUDGE_HLD	108
T_JUDGE_SLD	6
T_JUDGE_ALL	276
TTM_EACHPAIRS	17
TTM_SCR_TAP	78000
TTM_SCR_BRK	15600
TTM_SCR_HLD	14000
TTM_SCR_SLD	9000
TTM_SCR_ALL	116600
TTM_SCR_S	112550
TTM_SCR_SS	116000
TTM_RAT_ACV	10051

