VERSION	0.00.00	1.03.00
FES_MODE	0
BPM_DEF	173.000	173.000	173.000	173.000
MET_DEF	4	4
RESOLUTION	384
CLK_DEF	384
COMPATIBLE_CODE	MA2

BPM	0	0	173.000
MET	0	0	4	4

TAP	3	0	1
TAP	3	0	7
TAP	3	96	1
TAP	3	96	3
TAP	3	192	3
TAP	3	192	5
TAP	3	288	5
STR	3	288	7
SCR	3	288	7	96	192	6
TAP	4	240	7
BRK	4	288	7
TAP	5	0	1
TAP	5	48	0
TAP	5	96	2
TAP	5	144	7
TAP	5	192	3
TAP	5	240	6
TAP	5	288	4
TAP	5	336	5
TAP	6	0	0
TAP	6	48	0
STR	6	144	1
SXL	6	144	1	96	48	3
STR	6	144	7
SXR	6	144	7	96	48	5
TAP	7	0	6
TAP	7	48	6
TAP	7	96	5
TAP	7	144	5
TAP	7	192	4
TAP	7	240	4
TAP	7	288	3
TAP	7	336	3
TAP	8	0	1
TAP	8	48	1
TAP	8	96	2
TAP	8	144	2
TAP	8	192	3
TAP	8	240	3
TAP	8	288	4
TAP	8	336	4
TAP	9	0	7
TAP	9	48	6
TAP	9	96	5
TAP	9	144	4
TAP	9	192	3
TAP	9	240	2
TAP	9	288	1
TAP	9	336	0
TAP	10	0	7
TAP	10	48	7
STR	10	144	0
SLR	10	144	0	96	96	7
STR	10	144	6
SLL	10	144	6	96	96	7
TAP	11	0	1
TAP	11	48	0
TAP	11	96	2
TAP	11	144	7
TAP	11	192	3
TAP	11	240	6
TAP	11	288	4
HLD	11	336	5	96
HLD	12	48	0	96
TAP	12	144	6
TAP	12	192	7
TAP	12	240	0
TAP	12	288	1
TAP	12	336	2
STR	13	0	3
SI_	13	0	3	96	48	0
SI_	13	0	3	96	48	6
STR	13	192	7
SI_	13	192	7	96	48	2
SI_	13	192	7	96	48	4
TAP	14	0	3
TAP	14	48	3
STR	14	96	5
SLL	14	96	5	96	96	7
TAP	14	144	5
TAP	14	240	0
BRK	14	288	0
TAP	15	0	6
TAP	15	48	7
TAP	15	96	5
TAP	15	144	0
TAP	15	192	4
TAP	15	240	1
TAP	15	288	3
HLD	15	336	2	96
HLD	16	48	7	96
TAP	16	144	1
TAP	16	192	0
TAP	16	240	7
TAP	16	288	6
TAP	16	336	5
STR	17	0	4
SI_	17	0	4	96	48	1
SI_	17	0	4	96	48	7
STR	17	192	0
SI_	17	192	0	96	48	3
SI_	17	192	0	96	48	5
TAP	18	0	4
TAP	18	48	4
TAP	18	96	2
STR	18	144	2
SLR	18	144	2	96	48	0
TAP	18	240	7
BRK	18	288	7
TAP	19	0	0
TAP	19	48	5
TAP	19	96	7
TAP	19	144	6
TAP	19	192	0
TAP	19	240	5
TAP	19	288	7
HLD	19	336	6	96
HLD	20	48	2	96
HLD	20	144	4	240
TAP	20	192	6
TAP	20	240	7
TAP	20	288	0
TAP	20	336	1
STR	21	0	2
SUR	21	0	2	96	96	6
STR	21	96	6
SUR	21	96	6	96	96	2
STR	21	192	2
SCR	21	192	2	96	96	6
STR	21	288	6
SCR	21	288	6	96	96	2
TAP	22	0	3
TAP	22	48	4
TAP	22	96	5
HLD	22	144	6	144
TAP	22	240	0
BRK	22	288	0
TAP	23	0	7
TAP	23	48	2
TAP	23	96	0
TAP	23	144	1
TAP	23	192	7
TAP	23	240	2
TAP	23	288	0
HLD	23	336	1	96
HLD	24	48	5	96
HLD	24	144	3	240
TAP	24	192	1
TAP	24	240	0
TAP	24	288	7
TAP	24	336	6
STR	25	0	5
SUL	25	0	5	96	96	1
STR	25	96	1
SUL	25	96	1	96	96	5
STR	25	192	5
SCL	25	192	5	96	96	1
STR	25	288	1
SCL	25	288	1	96	96	5
TAP	26	0	4
TAP	26	48	3
TAP	26	96	2
STR	26	144	1
SXL	26	144	1	96	96	7
STR	27	0	6
SUL	27	0	6	96	96	3
TAP	27	144	0
STR	27	192	0
SI_	27	192	0	96	48	4
TAP	27	288	0
STR	28	0	6
SUL	28	0	6	96	96	3
TAP	28	144	0
STR	28	192	0
SI_	28	192	0	96	48	4
TAP	28	288	0
STR	29	0	6
SUL	29	0	6	96	96	3
TAP	29	144	0
STR	29	192	0
SI_	29	192	0	96	48	4
TAP	29	288	0
TAP	30	0	5
TAP	30	48	7
TAP	30	96	0
TAP	30	144	2
TAP	30	240	0
TAP	30	240	1
TAP	30	288	0
TAP	30	288	1
TAP	30	336	2
TAP	30	336	7
TAP	31	48	6
TAP	31	48	7
TAP	31	96	6
TAP	31	96	7
TAP	31	144	0
TAP	31	144	5
TAP	31	240	4
TAP	31	240	5
TAP	31	288	4
TAP	31	288	5
TAP	31	336	3
TAP	31	336	6
TAP	32	48	2
TAP	32	48	3
TAP	32	96	2
TAP	32	96	3
TAP	32	144	2
TAP	32	144	3
TAP	32	192	2
TAP	32	192	3
TAP	32	240	1
TAP	32	240	4
TAP	32	288	0
TAP	32	288	5
STR	32	336	6
SXR	32	336	6	96	96	1
TAP	32	336	7
TAP	33	48	0
STR	33	96	0
SCR	33	96	0	96	144	7
TAP	33	336	0
TAP	34	48	1
TAP	34	48	7
TAP	34	144	2
TAP	34	144	6
STR	34	192	3
SI_	34	192	3	96	48	0
STR	34	192	5
SI_	34	192	5	96	48	0
BRK	34	288	3
BRK	34	288	5
TAP	35	0	6
TAP	35	0	7
TAP	35	96	0
TAP	35	96	1
TAP	35	192	2
TAP	35	240	2
TAP	35	240	3
TAP	35	288	5
TAP	35	336	4
TAP	35	336	5
TAP	36	0	0
TAP	36	0	6
TAP	36	48	1
TAP	36	48	7
TAP	36	96	0
TAP	36	96	6
HLD	36	144	1	144
TAP	36	144	7
TAP	36	240	2
BRK	36	288	0
HLD	37	0	3	48
HLD	37	48	4	48
HLD	37	96	5	48
HLD	37	144	6	48
HLD	37	192	7	48
HLD	37	240	0	48
HLD	37	288	1	48
TAP	37	336	2
STR	38	0	3
SXL	38	0	3	96	96	3
SXR	38	0	3	96	96	3
TAP	38	240	2
TAP	38	240	4
TAP	38	288	1
TAP	38	288	5
TAP	38	336	0
TAP	38	336	6
HLD	39	0	0	48
HLD	39	0	7	48
HLD	39	96	3	48
HLD	39	96	4	48
TAP	39	192	7
TAP	39	240	0
TAP	39	288	1
STR	39	336	2
SI_	39	336	2	96	48	5
STR	39	336	6
SI_	39	336	6	96	48	1
TAP	40	144	1
TAP	40	144	5
TAP	40	240	0
BRK	40	288	0
HLD	41	0	3	48
HLD	41	0	4	48
HLD	41	96	2	48
HLD	41	96	5	48
HLD	41	192	1	48
HLD	41	192	6	48
TAP	41	288	0
TAP	41	288	7
STR	41	336	0
SUR	41	336	0	96	144	1
TAP	41	336	7
TAP	42	48	7
TAP	42	96	6
TAP	42	144	5
BRK	42	192	4
BRK	42	240	3
BRK	42	288	2
TAP	43	0	0
TAP	43	0	1
TAP	43	96	6
TAP	43	96	7
TAP	43	192	5
TAP	43	240	4
TAP	43	240	5
TAP	43	288	2
TAP	43	336	2
TAP	43	336	3
TAP	44	0	1
TAP	44	0	7
TAP	44	48	0
TAP	44	48	6
TAP	44	96	1
TAP	44	96	7
TAP	44	144	0
HLD	44	144	6	144
TAP	44	240	5
BRK	44	288	7
HLD	45	0	4	48
HLD	45	48	5	48
HLD	45	96	6	48
HLD	45	144	7	48
HLD	45	192	0	48
HLD	45	240	1	48
HLD	45	288	2	48
TAP	45	336	3
STR	46	0	4
SLL	46	0	4	96	96	0
SLR	46	0	4	96	96	0
TAP	46	240	1
TAP	46	240	7
TAP	46	288	2
TAP	46	288	6
TAP	46	336	3
TAP	46	336	5
HLD	47	0	3	48
HLD	47	0	4	48
HLD	47	96	5	48
HLD	47	96	6	48
HLD	47	192	1	48
HLD	47	192	2	48
TAP	47	288	3
TAP	47	288	4
STR	47	336	3
SI_	47	336	3	96	48	0
STR	47	336	4
SI_	47	336	4	96	48	7
TAP	48	144	0
TAP	48	144	7
TAP	48	240	0
TAP	48	288	0
BRK	48	336	6
BRK	48	336	7
TAP	49	48	0
TAP	49	48	5
BRK	49	96	0
BRK	49	96	5
BRK	49	192	2
BRK	49	192	3
BRK	49	240	2
BRK	49	240	3
BRK	49	336	1
BST	49	336	4
SXL	49	336	4	96	240	4
SXR	49	336	4	96	240	4
TAP	51	0	2
TAP	51	0	3
TAP	51	48	2
TAP	51	48	3
TAP	51	96	1
TAP	51	96	4
TAP	51	192	4
TAP	51	192	5
TAP	51	240	4
TAP	51	240	5
TAP	51	288	3
TAP	51	288	6
TAP	51	336	3
TAP	51	336	6
TAP	52	48	1
TAP	52	48	4
TAP	52	144	3
TAP	52	144	6
TAP	52	192	3
TAP	52	192	6
BRK	52	288	0
BRK	52	288	7
STR	53	0	6
SXR	53	0	6	96	96	4
STR	53	96	4
SCR	53	96	4	96	96	0
STR	53	192	0
SCR	53	192	0	96	96	4
STR	53	288	4
SXL	53	288	4	96	144	4
SXR	53	288	4	96	144	4
TAP	54	240	0
BRK	54	288	0
TAP	55	0	2
TAP	55	0	3
TAP	55	48	2
TAP	55	48	3
TAP	55	96	0
TAP	55	96	5
TAP	55	192	4
TAP	55	192	5
TAP	55	240	4
TAP	55	240	5
TAP	55	288	2
TAP	55	288	7
STR	55	336	2
SI_	55	336	2	96	48	6
TAP	55	336	7
STR	56	48	7
SI_	56	48	7	96	48	3
STR	56	144	1
SI_	56	144	1	96	48	5
TAP	56	240	7
BRK	56	288	7
STR	57	0	1
SXL	57	0	1	96	96	3
STR	57	96	3
SCL	57	96	3	96	96	7
STR	57	192	7
SCL	57	192	7	96	96	3
STR	57	288	3
SXL	57	288	3	96	144	3
SXR	57	288	3	96	144	3
TAP	58	240	7
BRK	58	288	7
TAP	59	0	4
TAP	59	0	5
TAP	59	48	4
TAP	59	48	5
TAP	59	96	2
TAP	59	96	7
TAP	59	192	2
TAP	59	192	3
TAP	59	240	2
TAP	59	240	3
TAP	59	288	0
TAP	59	288	5
TAP	59	336	0
STR	59	336	5
SI_	59	336	5	96	48	1
STR	60	48	0
SI_	60	48	0	96	48	4
STR	60	144	6
SI_	60	144	6	96	48	2
TAP	60	240	0
BRK	60	288	0
TAP	61	0	1
TAP	61	48	5
TAP	61	96	2
TAP	61	144	6
TAP	61	192	3
TAP	61	240	7
TAP	61	288	4
STR	61	336	0
SCR	61	336	0	96	96	4
STR	62	48	4
SCR	62	48	4	96	72	7
TAP	62	144	0
STR	62	192	0
SF_	62	192	0	96	48	4
TAP	63	0	0
TAP	63	0	2
TAP	63	48	1
TAP	63	96	0
TAP	63	96	2
TAP	63	192	5
TAP	63	192	7
TAP	63	240	6
TAP	63	288	5
TAP	63	288	7
TAP	63	336	5
TAP	63	336	7
TAP	64	48	0
TAP	64	48	2
TAP	64	144	0
TAP	64	144	7
BRK	64	192	0
BRK	64	192	7
TAP	64	240	6
TAP	64	288	1
TAP	64	336	4
TAP	64	336	6
TAP	65	48	1
TAP	65	48	3
TAP	65	144	0
TAP	65	144	7
STR	65	192	0
SI_	65	192	0	96	48	3
STR	65	192	7
SI_	65	192	7	96	48	4
BRK	65	288	0
BRK	65	288	7

T_REC_TAP	304
T_REC_BRK	31
T_REC_XTP	0
T_REC_HLD	43
T_REC_XHO	0
T_REC_STR	56
T_REC_BST	1
T_REC_XST	0
T_REC_TTP	0
T_REC_THO	0
T_REC_SLD	66
T_REC_ALL	501
T_NUM_TAP	360
T_NUM_BRK	32
T_NUM_HLD	43
T_NUM_SLD	66
T_NUM_ALL	501
T_JUDGE_TAP	392
T_JUDGE_HLD	65
T_JUDGE_SLD	66
T_JUDGE_ALL	523
TTM_EACHPAIRS	107
TTM_SCR_TAP	180000
TTM_SCR_BRK	83200
TTM_SCR_HLD	43000
TTM_SCR_SLD	99000
TTM_SCR_ALL	405200
TTM_SCR_S	389950
TTM_SCR_SS	402000
TTM_RAT_ACV	10079

