VERSION	0.00.00	1.03.00
FES_MODE	0
BPM_DEF	173.000	173.000	173.000	173.000
MET_DEF	4	4
RESOLUTION	384
CLK_DEF	384
COMPATIBLE_CODE	MA2

BPM	0	0	173.000
MET	0	0	4	4

TAP	3	0	0
TAP	3	96	1
TAP	3	96	7
TAP	3	192	5
TAP	3	240	4
TAP	3	288	5
TAP	4	0	7
TAP	4	96	0
TAP	4	96	6
TAP	4	192	2
TAP	4	240	3
TAP	4	288	2
TAP	5	0	4
TAP	5	96	3
TAP	5	96	5
TAP	5	192	1
TAP	5	240	0
TAP	5	288	1
TAP	6	0	6
TAP	6	0	7
TAP	6	48	6
TAP	6	48	7
STR	6	144	6
SCL	6	144	6	96	48	3
STR	6	144	7
SCR	6	144	7	96	48	2
TAP	7	0	7
TAP	7	96	0
TAP	7	96	6
TAP	7	192	2
TAP	7	240	3
TAP	7	288	2
TAP	8	0	0
TAP	8	96	1
TAP	8	96	7
TAP	8	192	5
TAP	8	240	4
TAP	8	288	5
TAP	9	0	3
TAP	9	96	2
TAP	9	96	4
TAP	9	192	6
TAP	9	240	7
TAP	9	288	6
TAP	10	0	0
TAP	10	0	1
TAP	10	48	0
TAP	10	48	1
STR	10	144	0
SCL	10	144	0	96	48	5
STR	10	144	1
SCR	10	144	1	96	48	4
TAP	11	0	3
TAP	11	96	1
TAP	11	96	4
TAP	11	192	4
TAP	11	288	3
TAP	11	288	6
TAP	12	0	2
TAP	12	96	1
TAP	12	96	4
TAP	12	192	5
TAP	12	288	3
TAP	12	288	6
HLD	13	0	2	96
HLD	13	96	1	96
HLD	13	192	0	96
TAP	13	288	7
HLD	14	0	5	96
HLD	14	96	6	96
HLD	14	192	7	96
BRK	14	288	0
TAP	15	0	0
TAP	15	96	2
TAP	15	96	7
TAP	15	192	7
TAP	15	288	0
TAP	15	288	5
TAP	16	0	1
TAP	16	96	2
TAP	16	96	7
TAP	16	192	6
TAP	16	288	0
TAP	16	288	5
HLD	17	0	1	96
HLD	17	96	3	96
HLD	17	192	4	96
TAP	17	288	5
HLD	18	0	6	96
HLD	18	96	4	96
HLD	18	192	3	96
TAP	18	288	2
TAP	19	0	2
TAP	19	0	3
TAP	19	96	1
TAP	19	96	4
TAP	19	192	4
TAP	19	192	5
TAP	19	288	3
TAP	19	288	6
TAP	20	0	2
TAP	20	0	4
TAP	20	96	3
TAP	20	96	5
TAP	20	192	6
TAP	20	240	7
TAP	20	288	6
HLD	21	0	6	96
TAP	21	96	0
HLD	21	192	1	96
TAP	21	288	7
HLD	22	0	5	96
TAP	22	96	0
HLD	22	192	2	96
BRK	22	288	7
TAP	23	0	4
TAP	23	0	5
TAP	23	96	3
TAP	23	96	6
TAP	23	192	2
TAP	23	192	3
TAP	23	288	1
TAP	23	288	4
TAP	24	0	3
TAP	24	0	5
TAP	24	96	2
TAP	24	96	4
TAP	24	192	1
TAP	24	240	0
TAP	24	288	1
HLD	25	0	2	96
HLD	25	96	0	96
HLD	25	192	7	96
TAP	25	288	6
HLD	26	0	5	96
HLD	26	96	7	96
HLD	26	192	0	96
TAP	26	288	1
HLD	27	0	2	192
TAP	27	144	3
TAP	27	192	3
TAP	27	288	7
HLD	28	0	5	192
TAP	28	144	4
TAP	28	192	4
TAP	28	288	0
HLD	29	0	2	192
TAP	29	144	3
TAP	29	192	3
TAP	29	288	7
HLD	30	0	5	192
TAP	30	144	4
TAP	30	192	4
TAP	30	288	0
HLD	30	336	0	96
TAP	31	48	1
HLD	31	144	7	96
TAP	31	240	6
HLD	31	336	3	96
TAP	32	48	2
TAP	32	144	4
TAP	32	192	3
TAP	32	288	1
TAP	32	288	6
TAP	33	0	2
TAP	33	48	2
TAP	33	96	3
TAP	33	144	3
TAP	33	192	4
TAP	33	240	4
TAP	33	288	5
TAP	33	336	3
TAP	33	336	6
TAP	34	48	1
TAP	34	48	5
TAP	34	144	0
TAP	34	192	7
BRK	34	288	1
BRK	34	288	6
TAP	35	0	0
TAP	35	0	1
TAP	35	48	0
TAP	35	48	1
TAP	35	96	2
TAP	35	96	7
TAP	35	192	6
TAP	35	192	7
TAP	35	240	6
TAP	35	240	7
TAP	35	288	0
TAP	35	288	5
TAP	36	0	3
TAP	36	48	4
TAP	36	96	3
HLD	36	144	4	144
BRK	36	240	7
BRK	36	288	7
TAP	37	0	6
TAP	37	0	7
TAP	37	48	6
TAP	37	48	7
TAP	37	96	0
TAP	37	96	5
TAP	37	192	0
TAP	37	192	1
TAP	37	240	0
TAP	37	240	1
TAP	37	288	2
TAP	37	288	7
STR	38	0	6
SCL	38	0	6	96	48	3
STR	38	144	0
SCR	38	144	0	96	48	3
TAP	38	288	5
TAP	39	0	2
TAP	39	96	7
TAP	39	192	5
TAP	39	240	4
TAP	39	288	5
HLD	39	336	4	96
TAP	40	48	3
TAP	40	144	1
TAP	40	240	0
TAP	40	288	1
TAP	40	288	7
TAP	41	0	2
TAP	41	0	3
TAP	41	96	1
TAP	41	96	4
TAP	41	192	0
TAP	41	192	5
TAP	41	288	6
TAP	41	336	7
TAP	42	48	1
TAP	42	96	0
TAP	42	192	0
TAP	42	192	7
BRK	42	288	1
BRK	42	288	6
TAP	43	0	6
TAP	43	0	7
TAP	43	48	6
TAP	43	48	7
TAP	43	96	0
TAP	43	96	5
TAP	43	192	0
TAP	43	192	1
TAP	43	240	0
TAP	43	240	1
TAP	43	288	2
TAP	43	288	7
TAP	44	0	4
TAP	44	48	3
TAP	44	96	4
HLD	44	144	3	144
BRK	44	240	0
BRK	44	288	0
TAP	45	0	0
TAP	45	0	1
TAP	45	48	0
TAP	45	48	1
TAP	45	96	2
TAP	45	96	7
TAP	45	192	6
TAP	45	192	7
TAP	45	240	6
TAP	45	240	7
TAP	45	288	0
TAP	45	288	5
STR	46	0	1
SCR	46	0	1	96	48	4
STR	46	144	7
SCL	46	144	7	96	48	4
TAP	46	288	2
TAP	47	0	5
TAP	47	96	0
TAP	47	192	2
TAP	47	240	3
TAP	47	288	2
HLD	47	336	3	96
TAP	48	48	4
TAP	48	144	6
TAP	48	240	7
TAP	48	288	0
TAP	48	288	6
TAP	48	336	0
TAP	49	48	7
TAP	49	96	7
TAP	49	192	3
TAP	49	240	4
TAP	49	336	1
TAP	49	336	5
TAP	50	48	0
TAP	50	96	7
TAP	50	192	0
TAP	50	192	7
TAP	50	264	1
TAP	50	264	6
TAP	50	336	2
TAP	50	336	5
STR	51	0	3
SXR	51	0	3	96	96	2
STR	51	0	4
SXL	51	0	4	96	96	5
BRK	51	336	6
BRK	51	336	7
BRK	52	48	0
BRK	52	48	1
BRK	52	144	7
BRK	52	192	0
BRK	52	288	1
BRK	52	288	6
TAP	53	0	2
TAP	53	96	2
TAP	53	96	3
TAP	53	192	5
TAP	53	288	4
TAP	53	288	5
TAP	54	0	2
TAP	54	96	1
TAP	54	96	3
TAP	54	192	5
TAP	54	288	4
TAP	54	288	6
TAP	55	0	1
TAP	55	48	0
TAP	55	96	1
TAP	55	192	6
TAP	55	240	7
TAP	55	288	6
TAP	55	336	0
TAP	56	48	0
TAP	56	144	0
BRK	56	240	7
BRK	56	288	7
TAP	57	0	5
TAP	57	96	4
TAP	57	96	5
TAP	57	192	2
TAP	57	288	2
TAP	57	288	3
TAP	58	0	5
TAP	58	96	4
TAP	58	96	6
TAP	58	192	2
TAP	58	288	1
TAP	58	288	3
HLD	59	0	5	96
HLD	59	96	6	96
HLD	59	192	7	96
TAP	59	288	0
TAP	59	336	7
TAP	60	48	7
TAP	60	144	7
BRK	60	288	1
BRK	60	288	6
TAP	61	0	1
TAP	61	96	0
TAP	61	96	2
TAP	61	192	6
TAP	61	288	5
TAP	61	288	7
TAP	62	0	3
TAP	62	96	1
TAP	62	96	4
TAP	62	192	4
TAP	62	288	3
TAP	62	288	6
HLD	63	0	2	144
TAP	63	144	7
TAP	63	192	7
TAP	63	336	1
TAP	64	48	0
TAP	64	144	1
STR	64	192	1
SI_	64	192	1	96	48	4
TAP	64	336	6
TAP	65	48	7
TAP	65	144	6
STR	65	192	6
SI_	65	192	6	96	48	3
BRK	65	288	0

T_REC_TAP	298
T_REC_BRK	23
T_REC_XTP	0
T_REC_HLD	37
T_REC_XHO	0
T_REC_STR	12
T_REC_BST	0
T_REC_XST	0
T_REC_TTP	0
T_REC_THO	0
T_REC_SLD	12
T_REC_ALL	382
T_NUM_TAP	310
T_NUM_BRK	23
T_NUM_HLD	37
T_NUM_SLD	12
T_NUM_ALL	382
T_JUDGE_TAP	333
T_JUDGE_HLD	85
T_JUDGE_SLD	12
T_JUDGE_ALL	430
TTM_EACHPAIRS	88
TTM_SCR_TAP	155000
TTM_SCR_BRK	59800
TTM_SCR_HLD	37000
TTM_SCR_SLD	18000
TTM_SCR_ALL	269800
TTM_SCR_S	259500
TTM_SCR_SS	267500
TTM_RAT_ACV	10085

