VERSION	0.00.00	1.03.00
FES_MODE	0
BPM_DEF	173.000	173.000	173.000	173.000
MET_DEF	4	4
RESOLUTION	384
CLK_DEF	384
COMPATIBLE_CODE	MA2

BPM	0	0	173.000
MET	0	0	4	4

TAP	3	0	2
TAP	3	96	2
TAP	3	192	3
TAP	3	288	3
HLD	4	0	2	192
HLD	4	0	3	192
TAP	5	0	5
TAP	5	96	5
TAP	5	192	4
TAP	5	288	4
HLD	6	0	4	192
HLD	6	0	5	192
TAP	7	0	1
TAP	7	96	1
TAP	7	192	3
TAP	7	288	3
HLD	8	0	5	192
TAP	8	192	7
TAP	9	0	6
TAP	9	96	6
TAP	9	192	4
TAP	9	288	4
HLD	10	0	2	192
TAP	10	192	0
TAP	11	0	2
TAP	11	96	3
TAP	11	192	2
TAP	12	0	5
TAP	12	96	4
TAP	12	192	5
TAP	13	0	1
TAP	13	96	2
TAP	13	192	3
TAP	13	288	4
TAP	14	0	5
TAP	14	96	6
TAP	14	192	0
TAP	14	192	7
TAP	15	0	5
TAP	15	96	4
TAP	15	192	6
TAP	16	0	2
TAP	16	96	3
TAP	16	192	1
TAP	17	0	6
TAP	17	96	5
TAP	17	192	4
TAP	17	288	3
TAP	18	0	2
TAP	18	96	1
TAP	18	192	0
TAP	18	192	7
TAP	19	0	1
TAP	19	96	1
TAP	19	192	0
TAP	19	192	2
TAP	20	0	6
TAP	20	96	6
TAP	20	192	5
TAP	20	192	7
TAP	21	0	0
TAP	21	96	1
TAP	21	192	2
TAP	21	288	3
TAP	21	288	4
TAP	22	0	5
TAP	22	96	6
TAP	22	192	0
TAP	22	192	7
TAP	23	0	6
TAP	23	96	7
TAP	23	192	0
TAP	23	192	5
TAP	24	0	1
TAP	24	96	0
TAP	24	192	2
TAP	24	192	7
TAP	25	0	7
TAP	25	96	6
TAP	25	192	5
TAP	25	288	3
TAP	25	288	4
TAP	26	0	2
TAP	26	96	1
TAP	26	192	0
TAP	26	192	7
HLD	27	0	2	192
TAP	27	192	3
TAP	27	288	3
HLD	28	0	5	192
TAP	28	192	4
TAP	28	288	4
HLD	29	0	1	192
TAP	29	192	3
TAP	29	288	3
HLD	30	0	6	192
TAP	30	192	4
TAP	30	288	4
STR	31	0	1
SI_	31	0	1	96	192	4
STR	32	0	6
SI_	32	0	6	96	192	3
STR	33	0	0
SCR	33	0	0	96	288	7
BRK	34	288	1
BRK	34	288	6
TAP	35	0	5
TAP	35	96	4
TAP	35	192	5
TAP	35	288	4
TAP	36	0	4
TAP	36	0	5
TAP	36	96	3
TAP	36	96	6
TAP	36	192	0
TAP	36	288	0
TAP	37	0	2
TAP	37	96	3
TAP	37	192	2
TAP	37	288	3
TAP	38	0	2
TAP	38	0	3
TAP	38	96	1
TAP	38	96	4
TAP	38	192	7
TAP	38	288	7
HLD	39	0	1	288
TAP	39	96	0
TAP	39	192	0
TAP	39	288	0
HLD	40	0	6	288
TAP	40	96	7
TAP	40	192	7
TAP	40	288	7
TAP	41	0	0
TAP	41	96	1
TAP	41	192	2
TAP	41	288	3
TAP	42	0	4
TAP	42	96	5
TAP	42	192	6
TAP	42	288	0
TAP	42	288	7
TAP	43	0	1
TAP	43	96	0
TAP	43	192	1
TAP	43	288	0
TAP	44	0	0
TAP	44	0	1
TAP	44	96	2
TAP	44	96	7
TAP	44	192	0
TAP	44	288	0
TAP	44	288	1
TAP	45	0	6
TAP	45	96	7
TAP	45	192	6
TAP	45	288	7
TAP	46	0	6
TAP	46	0	7
TAP	46	96	0
TAP	46	96	5
TAP	46	192	7
TAP	46	288	6
TAP	46	288	7
HLD	47	0	6	288
TAP	47	96	5
TAP	47	192	5
TAP	47	288	5
HLD	48	0	1	288
TAP	48	96	2
TAP	48	192	2
TAP	48	288	2
TAP	49	0	7
TAP	49	96	6
TAP	49	192	5
TAP	49	288	4
TAP	50	0	3
TAP	50	96	2
TAP	50	192	1
TAP	50	288	0
STR	51	0	0
SCR	51	0	0	96	96	3
STR	51	0	7
SCL	51	0	7	96	96	4
TAP	52	0	3
TAP	52	0	4
TAP	52	96	2
TAP	52	96	5
TAP	52	192	1
TAP	52	192	6
BRK	52	288	0
BRK	52	288	7
TAP	53	0	1
TAP	53	96	2
TAP	53	192	3
TAP	53	288	4
TAP	54	0	3
TAP	54	0	5
TAP	54	96	3
TAP	54	96	5
TAP	54	192	7
TAP	54	288	7
TAP	55	0	6
TAP	55	96	5
TAP	55	192	4
TAP	55	288	3
TAP	56	0	2
TAP	56	0	4
TAP	56	96	2
TAP	56	96	4
TAP	56	192	0
TAP	56	288	0
TAP	57	0	1
TAP	57	96	2
TAP	57	192	3
TAP	57	288	4
TAP	57	288	5
TAP	58	0	5
TAP	58	96	4
TAP	58	96	6
TAP	58	192	5
TAP	58	288	0
TAP	58	288	7
TAP	59	0	6
TAP	59	96	5
TAP	59	192	4
TAP	59	288	2
TAP	59	288	3
TAP	60	0	2
TAP	60	96	1
TAP	60	96	3
TAP	60	192	2
TAP	60	288	0
TAP	60	288	7
TAP	61	0	1
TAP	61	96	2
TAP	61	192	3
TAP	61	288	4
TAP	62	0	5
TAP	62	96	6
TAP	62	192	0
TAP	62	192	7
TAP	62	288	1
STR	62	288	6
SCL	62	288	6	96	192	2
TAP	64	0	0
TAP	64	0	1
TAP	64	96	2
TAP	64	96	7
TAP	64	192	3
TAP	64	192	6
BRK	64	288	0
TAP	65	0	6
TAP	65	0	7
TAP	65	96	0
TAP	65	96	5
TAP	65	192	1
TAP	65	192	4
BRK	65	288	7

T_REC_TAP	228
T_REC_BRK	6
T_REC_XTP	0
T_REC_HLD	14
T_REC_XHO	0
T_REC_STR	6
T_REC_BST	0
T_REC_XST	0
T_REC_TTP	0
T_REC_THO	0
T_REC_SLD	6
T_REC_ALL	260
T_NUM_TAP	234
T_NUM_BRK	6
T_NUM_HLD	14
T_NUM_SLD	6
T_NUM_ALL	260
T_JUDGE_TAP	240
T_JUDGE_HLD	64
T_JUDGE_SLD	6
T_JUDGE_ALL	310
TTM_EACHPAIRS	47
TTM_SCR_TAP	117000
TTM_SCR_BRK	15600
TTM_SCR_HLD	14000
TTM_SCR_SLD	9000
TTM_SCR_ALL	155600
TTM_SCR_S	150350
TTM_SCR_SS	155000
TTM_RAT_ACV	10038

