VERSION	0.00.00	1.03.00
FES_MODE	0
BPM_DEF	173.000	173.000	173.000	173.000
MET_DEF	4	4
RESOLUTION	384
CLK_DEF	384
COMPATIBLE_CODE	MA2

BPM	0	0	173.000
MET	0	0	4	4

TAP	3	0	0
TAP	3	192	0
TAP	4	0	1
TAP	4	192	1
TAP	5	0	2
TAP	5	192	2
TAP	6	0	3
TAP	6	192	3
TAP	7	0	4
TAP	7	192	4
TAP	8	0	5
TAP	8	192	5
TAP	9	0	6
TAP	9	192	6
TAP	10	0	7
BRK	10	192	7
TAP	11	0	0
TAP	11	192	0
TAP	12	0	7
TAP	12	192	7
HLD	13	0	1	192
HLD	14	0	6	192
TAP	15	0	4
TAP	15	192	4
TAP	16	0	3
TAP	16	192	3
HLD	17	0	5	192
HLD	18	0	2	192
TAP	19	0	1
TAP	19	192	1
TAP	20	0	0
TAP	20	192	0
TAP	21	0	7
TAP	21	192	7
TAP	22	0	6
TAP	22	96	6
TAP	22	192	6
TAP	23	0	7
TAP	23	192	7
TAP	24	0	0
TAP	24	192	0
TAP	25	0	1
TAP	25	192	1
TAP	26	0	2
TAP	26	96	2
TAP	26	192	2
STR	27	0	1
SI_	27	0	1	96	288	5
STR	29	0	6
SI_	29	0	6	96	288	2
TAP	31	0	2
TAP	31	0	3
TAP	31	192	4
TAP	31	192	5
TAP	32	0	2
TAP	32	0	3
TAP	32	192	4
TAP	32	192	5
STR	33	0	3
SI_	33	0	3	96	288	0
STR	33	0	4
SI_	33	0	4	96	288	7
TAP	35	0	0
TAP	35	96	0
TAP	35	192	0
TAP	36	0	7
TAP	36	96	7
TAP	36	192	7
TAP	37	0	1
TAP	37	96	1
TAP	37	192	1
TAP	38	0	6
TAP	38	96	6
TAP	38	192	6
TAP	39	0	5
TAP	39	192	5
TAP	40	0	4
TAP	40	192	4
TAP	41	0	2
TAP	41	0	3
TAP	41	192	2
TAP	41	192	3
TAP	42	0	0
TAP	42	0	1
BRK	42	192	0
BRK	42	192	1
TAP	43	0	7
TAP	43	96	7
TAP	43	192	7
TAP	44	0	0
TAP	44	96	0
TAP	44	192	0
TAP	45	0	6
TAP	45	96	6
TAP	45	192	6
TAP	46	0	1
TAP	46	96	1
TAP	46	192	1
TAP	47	0	2
TAP	47	192	2
TAP	48	0	3
TAP	48	192	3
TAP	49	0	4
TAP	49	0	5
TAP	49	192	4
TAP	49	192	5
TAP	50	0	6
TAP	50	0	7
TAP	50	192	6
TAP	50	192	7
STR	51	0	7
SI_	51	0	7	96	288	3
TAP	53	0	2
TAP	53	96	2
TAP	53	192	2
TAP	54	0	3
TAP	54	96	3
TAP	54	192	3
STR	55	0	2
SI_	55	0	2	96	288	6
TAP	57	0	5
TAP	57	96	5
TAP	57	192	5
TAP	58	0	4
TAP	58	96	4
TAP	58	192	4
STR	59	0	5
SI_	59	0	5	96	288	1
TAP	61	0	2
TAP	61	96	2
TAP	61	192	3
TAP	62	0	5
TAP	62	96	5
TAP	62	192	4
HLD	63	0	3	192
TAP	64	0	4
TAP	64	96	4
TAP	64	192	4
TAP	64	288	3
TAP	64	288	5
TAP	65	0	3
TAP	65	96	3
TAP	65	192	3
TAP	65	288	2
TAP	65	288	4

T_REC_TAP	123
T_REC_BRK	3
T_REC_XTP	0
T_REC_HLD	5
T_REC_XHO	0
T_REC_STR	7
T_REC_BST	0
T_REC_XST	0
T_REC_TTP	0
T_REC_THO	0
T_REC_SLD	7
T_REC_ALL	145
T_NUM_TAP	130
T_NUM_BRK	3
T_NUM_HLD	5
T_NUM_SLD	7
T_NUM_ALL	145
T_JUDGE_TAP	133
T_JUDGE_HLD	20
T_JUDGE_SLD	7
T_JUDGE_ALL	160
TTM_EACHPAIRS	15
TTM_SCR_TAP	65000
TTM_SCR_BRK	7800
TTM_SCR_HLD	5000
TTM_SCR_SLD	10500
TTM_SCR_ALL	88300
TTM_SCR_S	85400
TTM_SCR_SS	88000
TTM_RAT_ACV	10034

