VERSION	0.00.00	1.03.00
FES_MODE	0
BPM_DEF	180.000	180.000	180.000	180.000
MET_DEF	4	4
RESOLUTION	384
CLK_DEF	384
COMPATIBLE_CODE	MA2

BPM	0	0	180.000
MET	0	0	4	4

TAP	1	0	1
TAP	1	0	3
TAP	1	48	2
TAP	1	96	3
TAP	1	144	5
TAP	1	144	7
TAP	1	192	6
TAP	1	240	5
TAP	1	288	0
TAP	1	288	2
TAP	1	336	1
TAP	2	0	2
TAP	2	48	4
TAP	2	48	6
TAP	2	96	5
TAP	2	144	4
STR	2	192	2
SI_	2	192	2	96	48	7
STR	2	192	3
SI_	2	192	3	96	48	6
TAP	2	288	2
TAP	2	288	3
TAP	3	0	4
TAP	3	0	6
TAP	3	48	5
TAP	3	96	4
TAP	3	144	0
TAP	3	144	2
TAP	3	192	1
TAP	3	240	2
TAP	3	288	5
TAP	3	288	7
TAP	3	336	6
TAP	4	0	5
TAP	4	48	1
TAP	4	48	3
TAP	4	96	2
TAP	4	144	3
STR	4	192	4
SI_	4	192	4	96	48	1
STR	4	192	5
SI_	4	192	5	96	48	0
TAP	4	288	4
TAP	4	288	5
TAP	5	0	2
TAP	5	0	3
TAP	5	48	1
TAP	5	96	4
TAP	5	144	4
TAP	5	144	5
TAP	5	192	3
TAP	5	240	6
TAP	5	288	6
TAP	5	288	7
TAP	5	336	5
TAP	6	0	0
TAP	6	48	0
TAP	6	48	1
TAP	6	96	7
TAP	6	144	2
STR	6	192	2
SI_	6	192	2	96	48	7
STR	6	192	3
SI_	6	192	3	96	48	6
TAP	6	288	2
TAP	6	288	3
TAP	7	0	4
TAP	7	0	5
TAP	7	48	6
TAP	7	96	3
TAP	7	144	2
TAP	7	144	3
TAP	7	192	4
TAP	7	240	1
TAP	7	288	0
TAP	7	288	1
TAP	7	336	2
TAP	8	0	7
TAP	8	48	6
TAP	8	48	7
TAP	8	96	0
TAP	8	144	5
TAP	8	192	4
TAP	8	192	5
TAP	8	240	3
TAP	8	288	2
TAP	8	336	1
HLD	9	0	0	192
TAP	9	48	7
TAP	9	96	6
TAP	9	144	5
HLD	9	192	4	192
TAP	9	240	3
TAP	9	288	2
TAP	9	336	1
TAP	10	0	0
TAP	10	48	1
TAP	10	48	7
TAP	10	96	2
TAP	10	96	6
TAP	10	144	3
TAP	10	144	5
STR	10	192	4
SCL	10	192	4	96	48	1
SUL	10	192	4	96	48	0
HLD	11	0	7	192
TAP	11	48	0
TAP	11	96	1
TAP	11	144	2
HLD	11	192	3	192
TAP	11	240	4
TAP	11	288	5
TAP	11	336	6
TAP	12	0	7
TAP	12	48	0
TAP	12	48	6
TAP	12	96	1
TAP	12	96	5
TAP	12	144	2
TAP	12	144	4
STR	12	192	3
SCR	12	192	3	96	48	6
SUR	12	192	3	96	48	7
HLD	13	0	0	192
TAP	13	48	1
TAP	13	96	2
TAP	13	144	3
HLD	13	192	4	192
TAP	13	240	5
TAP	13	288	6
TAP	13	336	7
STR	14	0	0
SXL	14	0	0	96	48	2
TAP	14	48	0
STR	14	96	4
SXL	14	96	4	96	48	6
TAP	14	144	4
TAP	14	192	0
TAP	14	288	2
TAP	14	288	5
TAP	14	336	1
TAP	14	336	6
STR	15	0	0
SCR	15	0	0	96	48	3
STR	15	0	7
SCL	15	0	7	96	48	4
TAP	15	96	0
TAP	15	96	7
TAP	15	192	1
TAP	15	192	2
TAP	15	264	5
TAP	15	264	6
TAP	15	336	0
TAP	15	336	7
STR	16	0	0
SCR	16	0	0	96	48	2
STR	16	0	7
SUR	16	0	7	96	48	3
STR	16	96	0
SUL	16	96	0	96	48	4
STR	16	96	7
SCL	16	96	7	96	48	5
TAP	16	192	0
TAP	16	192	7
TAP	16	288	3
TAP	16	312	4
TAP	16	336	3
STR	17	0	1
SCR	17	0	1	96	48	4
TAP	17	48	6
TAP	17	96	1
TAP	17	144	6
STR	17	192	4
SI_	17	192	4	96	48	0
TAP	17	240	5
TAP	17	288	4
TAP	17	336	5
STR	18	0	0
SV_	18	0	0	96	48	5
TAP	18	48	7
TAP	18	96	0
TAP	18	144	7
STR	18	192	5
SCL	18	192	5	96	48	2
TAP	18	240	6
TAP	18	288	5
TAP	18	336	6
STR	19	0	2
SV_	19	0	2	96	48	7
TAP	19	48	3
TAP	19	96	2
TAP	19	144	3
STR	19	192	7
SI_	19	192	7	96	48	3
TAP	19	240	6
TAP	19	288	7
TAP	19	336	6
STR	20	0	3
SXR	20	0	3	96	144	0
TAP	20	48	4
TAP	20	96	3
TAP	20	144	4
TAP	20	192	5
TAP	20	240	6
TAP	20	288	7
TAP	20	312	0
TAP	20	336	7
STR	21	0	6
SCL	21	0	6	96	48	3
TAP	21	48	1
TAP	21	96	6
TAP	21	144	1
STR	21	192	3
SI_	21	192	3	96	48	7
TAP	21	240	2
TAP	21	288	3
TAP	21	336	2
STR	22	0	7
SV_	22	0	7	96	48	2
TAP	22	48	0
TAP	22	96	7
TAP	22	144	0
STR	22	192	2
SCR	22	192	2	96	48	5
TAP	22	240	1
TAP	22	288	2
TAP	22	336	1
STR	23	0	5
SV_	23	0	5	96	48	0
TAP	23	48	4
TAP	23	96	5
TAP	23	144	4
STR	23	192	0
SI_	23	192	0	96	48	4
TAP	23	240	1
TAP	23	288	0
TAP	23	336	1
STR	24	0	4
SXL	24	0	4	96	144	7
TAP	24	48	3
TAP	24	96	4
TAP	24	144	3
TAP	24	192	2
TAP	24	240	1
TAP	24	288	0
TAP	24	312	7
TAP	24	336	0
STR	25	0	2
SCL	25	0	2	96	48	7
TAP	25	48	5
TAP	25	96	2
TAP	25	144	5
STR	25	192	7
SI_	25	192	7	96	48	3
TAP	25	240	6
TAP	25	288	7
TAP	25	336	6
STR	26	0	3
SV_	26	0	3	96	48	6
TAP	26	48	4
TAP	26	96	3
TAP	26	144	4
STR	26	192	6
SCR	26	192	6	96	48	1
TAP	26	240	5
TAP	26	288	6
TAP	26	336	5
STR	27	0	1
SV_	27	0	1	96	48	4
TAP	27	48	0
TAP	27	96	1
TAP	27	144	0
STR	27	192	4
SI_	27	192	4	96	48	0
TAP	27	240	5
TAP	27	288	4
TAP	27	336	5
STR	28	0	0
SCL	28	0	0	96	48	5
SCR	28	0	0	96	48	3
TAP	28	48	4
TAP	28	96	0
TAP	28	192	4
TAP	28	240	1
TAP	28	240	4
TAP	28	288	3
TAP	28	336	3
TAP	28	336	6
HLD	29	0	2	72
HLD	29	72	1	72
TAP	29	144	0
STR	29	192	2
SCL	29	192	2	96	48	0
STR	29	192	7
SCL	29	192	7	96	48	5
HLD	30	0	5	72
HLD	30	72	6	72
TAP	30	144	7
STR	30	192	0
SCR	30	192	0	96	48	2
STR	30	192	5
SCR	30	192	5	96	48	7
STR	30	288	0
SXL	30	288	0	96	240	3
SXR	30	288	0	96	240	5
TAP	32	0	0
TAP	32	0	7
TAP	32	48	1
TAP	32	48	6
TAP	32	96	2
TAP	32	96	5
TAP	32	144	3
TAP	32	168	4
TAP	32	192	3
TAP	32	240	1
TAP	32	240	6
TAP	32	288	0
TAP	32	312	7
TAP	32	336	0
TAP	32	360	7
STR	33	0	0
SI_	33	0	0	96	48	3
TAP	33	48	4
STR	33	96	0
SI_	33	96	0	96	48	5
TAP	33	144	4
STR	33	192	0
SCR	33	192	0	96	48	3
TAP	33	240	4
STR	33	288	0
SCL	33	288	0	96	48	5
TAP	33	336	4
STR	34	0	0
SI_	34	0	0	96	48	4
TAP	34	48	4
STR	34	96	0
SCL	34	96	0	96	48	5
SCR	34	96	0	96	48	3
TAP	34	144	6
TAP	34	192	0
TAP	34	288	0
TAP	34	288	4
STR	35	0	7
SI_	35	0	7	96	48	4
TAP	35	48	3
STR	35	96	7
SI_	35	96	7	96	48	2
TAP	35	144	3
STR	35	192	7
SCL	35	192	7	96	48	4
TAP	35	240	3
STR	35	288	7
SCR	35	288	7	96	48	2
TAP	35	336	3
STR	36	0	7
SI_	36	0	7	96	48	3
TAP	36	48	3
STR	36	96	7
SCL	36	96	7	96	48	4
SCR	36	96	7	96	48	2
TAP	36	144	1
TAP	36	192	7
TAP	36	288	3
TAP	36	288	7
STR	37	0	0
SI_	37	0	0	96	48	3
TAP	37	48	4
STR	37	96	0
SI_	37	96	0	96	48	5
TAP	37	144	4
STR	37	192	0
SCR	37	192	0	96	48	3
TAP	37	240	4
STR	37	288	0
SCL	37	288	0	96	48	5
TAP	37	336	4
TAP	38	0	0
TAP	38	48	4
STR	38	96	3
SF_	38	96	3	96	48	7
TAP	38	144	2
TAP	38	144	4
TAP	38	192	3
STR	38	288	1
SI_	38	288	1	96	48	4
TAP	38	336	5
TAP	39	0	1
STR	39	96	6
SI_	39	96	6	96	48	3
TAP	39	144	2
STR	39	192	1
SI_	39	192	1	96	48	4
TAP	39	192	6
TAP	39	288	1
STR	39	288	5
SCR	39	288	5	96	144	2
TAP	40	0	2
TAP	40	0	5
TAP	40	192	0
TAP	40	192	7
TAP	40	240	2
TAP	40	240	5
TAP	40	288	3
TAP	40	312	4
TAP	40	336	3
TAP	41	0	0
TAP	41	0	1
TAP	41	48	2
TAP	41	48	7
TAP	41	96	3
TAP	41	96	6
TAP	41	144	0
TAP	41	144	7
TAP	41	192	1
TAP	41	192	6
TAP	41	240	2
TAP	41	240	5
TAP	41	288	6
TAP	41	288	7
TAP	41	336	0
TAP	41	336	5
TAP	42	0	1
TAP	42	0	4
TAP	42	48	0
TAP	42	48	7
TAP	42	96	1
TAP	42	96	6
TAP	42	144	2
TAP	42	144	5
BST	42	192	3
SI_	42	192	3	96	48	0
BST	42	192	4
SI_	42	192	4	96	48	7
BRK	42	288	3
BRK	42	288	4
TAP	43	0	0
TAP	43	0	7
TAP	43	48	1
TAP	43	48	6
TAP	43	96	2
TAP	43	96	5
TAP	43	144	0
TAP	43	144	1
TAP	43	192	2
TAP	43	192	7
TAP	43	240	3
TAP	43	240	6
TAP	43	288	0
TAP	43	288	7
TAP	43	336	1
TAP	43	336	6
TAP	44	0	2
TAP	44	0	5
TAP	44	48	6
TAP	44	48	7
TAP	44	96	0
TAP	44	96	5
TAP	44	144	1
TAP	44	144	4
BRK	44	192	2
STR	44	192	3
SI_	44	192	3	96	24	0
BRK	44	288	3
STR	44	288	4
SI_	44	288	4	96	24	7
BRK	45	0	4
HLD	45	0	5	72
TAP	45	72	0
HLD	45	144	2	72
TAP	45	144	3
TAP	45	216	7
TAP	45	288	4
TAP	45	288	5
TAP	45	336	3
TAP	45	336	4
HLD	46	0	2	72
TAP	46	0	3
TAP	46	72	0
TAP	46	144	4
HLD	46	144	5	72
TAP	46	216	7
TAP	46	288	1
TAP	46	288	3
TAP	46	336	2
TAP	46	336	5
TAP	47	0	4
HLD	47	0	6	72
TAP	47	72	0
HLD	47	144	1	72
TAP	47	144	3
TAP	47	216	7
TAP	47	288	4
TAP	47	288	6
TAP	47	336	3
TAP	47	336	4
HLD	48	0	1	72
TAP	48	0	3
TAP	48	72	0
TAP	48	144	4
HLD	48	144	6	72
TAP	48	216	7
TAP	48	288	1
TAP	48	288	3
TAP	48	336	4
TAP	48	336	6
TAP	49	0	0
TAP	49	0	7
TAP	49	48	0
TAP	49	48	7
STR	49	288	2
SXR	49	288	2	96	144	2
STR	49	288	3
SXL	49	288	3	96	144	3
TAP	50	0	2
TAP	50	0	3
TAP	50	192	6
TAP	50	216	7
TAP	50	240	6
TAP	50	288	0
TAP	50	288	5
TAP	51	0	1
TAP	51	0	6
TAP	51	48	1
TAP	51	48	6
STR	51	288	4
SXR	51	288	4	96	144	4
STR	51	288	5
SXL	51	288	5	96	144	5
TAP	52	0	4
TAP	52	0	5
TAP	52	192	0
TAP	52	192	1
TAP	52	288	6
TAP	52	288	7
TAP	52	336	3
TAP	52	336	4
TAP	53	0	2
TAP	53	0	5
TAP	53	48	2
TAP	53	48	5
STR	53	288	3
SXR	53	288	3	96	144	3
STR	53	288	4
SXL	53	288	4	96	144	4
TAP	54	0	3
TAP	54	0	4
TAP	54	192	6
TAP	54	216	7
TAP	54	264	1
TAP	54	288	0
TAP	54	336	2
TAP	54	336	7
TAP	55	0	3
TAP	55	0	4
HLD	55	48	3	288
HLD	55	48	4	288
TAP	56	0	3
TAP	56	24	4
TAP	56	48	3
TAP	56	72	4
TAP	56	96	3
TAP	56	120	4
TAP	56	144	3
TAP	56	168	4
TAP	56	192	3
TAP	56	216	4
TAP	56	240	3
TAP	56	264	4
TAP	56	288	3
TAP	56	312	4
TAP	56	336	3
TAP	56	360	4
STR	57	0	1
SCR	57	0	1	96	24	4
TAP	57	48	0
STR	57	96	6
SCL	57	96	6	96	24	3
TAP	57	144	7
STR	57	192	1
SI_	57	192	1	96	24	5
TAP	57	240	0
STR	57	288	6
SI_	57	288	6	96	24	2
TAP	57	336	7
STR	58	0	1
SUR	58	0	1	96	24	5
TAP	58	48	0
STR	58	96	6
SUL	58	96	6	96	24	2
TAP	58	144	7
STR	58	192	0
SF_	58	192	0	96	48	4
STR	59	0	6
SCL	59	0	6	96	24	3
TAP	59	48	7
STR	59	96	1
SCR	59	96	1	96	24	4
TAP	59	144	0
STR	59	192	6
SI_	59	192	6	96	24	2
TAP	59	240	7
STR	59	288	1
SI_	59	288	1	96	24	5
TAP	59	336	0
STR	60	0	6
SUL	60	0	6	96	24	2
TAP	60	48	7
STR	60	96	1
SUR	60	96	1	96	24	5
TAP	60	144	0
STR	60	192	7
SF_	60	192	7	96	48	3
STR	61	0	2
SI_	61	0	2	96	24	7
TAP	61	48	4
STR	61	96	5
SI_	61	96	5	96	24	0
TAP	61	144	3
STR	61	192	2
SI_	61	192	2	96	24	6
TAP	61	240	4
STR	61	288	5
SI_	61	288	5	96	24	1
TAP	61	336	3
STR	62	0	2
SCL	62	0	2	96	24	7
TAP	62	48	4
STR	62	96	5
SCR	62	96	5	96	24	0
TAP	62	144	3
TAP	62	192	2
STR	62	288	3
SI_	62	288	3	96	48	7
TAP	62	336	4
TAP	63	0	3
STR	63	96	4
SI_	63	96	4	96	48	0
TAP	63	144	3
STR	63	192	2
SI_	63	192	2	96	48	6
TAP	63	192	4
TAP	63	288	2
STR	63	288	7
SCL	63	288	7	96	144	0
TAP	64	0	0
TAP	64	0	7
TAP	64	192	2
TAP	64	192	7
TAP	64	240	0
TAP	64	240	5
TAP	64	288	3
TAP	64	312	4
TAP	64	336	3
TAP	65	0	6
TAP	65	0	7
TAP	65	48	0
TAP	65	48	5
TAP	65	96	1
TAP	65	96	4
TAP	65	144	0
TAP	65	144	7
TAP	65	192	1
TAP	65	192	6
TAP	65	240	2
TAP	65	240	5
TAP	65	288	0
TAP	65	288	1
TAP	65	336	2
TAP	65	336	7
TAP	66	0	3
TAP	66	0	6
TAP	66	48	0
TAP	66	48	7
TAP	66	96	1
TAP	66	96	6
TAP	66	144	2
TAP	66	144	5
BST	66	192	3
SCL	66	192	3	96	48	0
BST	66	192	4
SCR	66	192	4	96	48	7
BRK	66	288	3
BRK	66	288	4
TAP	67	0	0
TAP	67	0	7
TAP	67	48	1
TAP	67	48	6
TAP	67	96	2
TAP	67	96	5
TAP	67	144	6
TAP	67	144	7
TAP	67	192	0
TAP	67	192	5
TAP	67	240	1
TAP	67	240	4
TAP	67	288	0
TAP	67	288	7
TAP	67	336	1
TAP	67	336	6
TAP	68	0	2
TAP	68	0	5
TAP	68	48	0
TAP	68	48	1
TAP	68	96	2
TAP	68	96	7
TAP	68	144	3
TAP	68	144	6
BST	68	192	4
SI_	68	192	4	96	48	0
BRK	68	192	5
BST	68	288	3
SCL	68	288	3	96	288	4
BRK	68	288	4
BRK	69	0	2
BRK	69	0	3
TAP	70	0	1
TAP	70	48	0
TAP	70	48	2
TAP	70	96	7
TAP	70	144	0
TAP	70	144	6
TAP	70	192	5
TAP	70	240	4
TAP	70	240	6
TAP	70	288	3
TAP	70	312	4
TAP	70	336	3
TAP	71	0	6
TAP	71	48	5
TAP	71	48	7
TAP	71	96	0
TAP	71	144	1
TAP	71	144	7
TAP	71	192	2
TAP	71	240	3
TAP	71	240	4
TAP	71	288	5
TAP	71	336	4
HLD	71	336	6	96
TAP	72	48	7
TAP	72	96	1
TAP	72	120	0
TAP	72	144	1
TAP	72	192	2
TAP	72	240	1
TAP	72	240	3
TAP	72	288	5
TAP	72	336	4
TAP	72	336	6
TAP	73	0	2
TAP	73	48	3
TAP	73	48	4
TAP	73	96	2
HLD	73	144	1	96
TAP	73	144	3
TAP	73	240	0
TAP	73	288	6
TAP	73	312	7
TAP	73	336	6
TAP	74	0	1
TAP	74	48	0
TAP	74	48	2
TAP	74	96	6
TAP	74	144	5
TAP	74	144	7
HLD	74	192	2	72
TAP	74	264	3
TAP	74	336	0
TAP	74	336	7
HLD	75	0	5	72
TAP	75	72	4
TAP	75	144	0
TAP	75	144	7
HLD	75	192	1	72
TAP	75	264	2
TAP	75	336	0
TAP	75	336	7
HLD	76	0	6	72
TAP	76	72	5
TAP	76	144	0
TAP	76	144	7
STR	76	192	0
SCR	76	192	0	96	48	3
STR	76	192	7
SCL	76	192	7	96	48	4
TAP	77	0	1
TAP	77	24	3
TAP	77	48	1
TAP	77	72	3
TAP	77	96	1
TAP	77	120	3
TAP	77	144	2
TAP	77	168	4
TAP	77	192	2
TAP	77	216	4
TAP	77	240	2
TAP	77	264	4
TAP	77	288	3
TAP	77	312	5
TAP	77	336	3
TAP	77	360	5
TAP	78	0	3
TAP	78	24	5
TAP	78	48	4
TAP	78	72	6
TAP	78	96	4
TAP	78	120	6
TAP	78	144	4
TAP	78	168	6
STR	78	192	5
SI_	78	192	5	96	48	1
TAP	79	0	1
TAP	79	24	7
TAP	79	48	1
TAP	79	72	7
TAP	79	96	1
TAP	79	120	7
TAP	79	144	0
TAP	79	168	5
TAP	79	192	0
TAP	79	216	5
TAP	79	240	0
TAP	79	264	5
TAP	79	288	2
TAP	79	312	6
TAP	79	336	2
TAP	79	360	6
TAP	80	0	2
TAP	80	24	6
TAP	80	48	0
TAP	80	72	4
TAP	80	96	0
TAP	80	120	4
TAP	80	144	0
TAP	80	168	4
STR	80	192	1
SV_	80	192	1	96	48	3
STR	80	192	5
SV_	80	192	5	96	48	7
TAP	81	0	2
TAP	81	24	4
TAP	81	48	2
TAP	81	72	4
TAP	81	96	2
TAP	81	120	4
TAP	81	144	3
TAP	81	168	6
TAP	81	192	3
TAP	81	216	6
TAP	81	240	3
TAP	81	264	6
TAP	81	288	1
TAP	81	312	5
TAP	81	336	1
TAP	81	360	5
TAP	82	0	1
TAP	82	24	5
TAP	82	48	3
TAP	82	72	7
TAP	82	96	3
TAP	82	120	7
TAP	82	144	3
TAP	82	168	7
STR	82	192	2
SXR	82	192	2	96	48	0
STR	82	192	6
SXR	82	192	6	96	48	4
TAP	83	0	1
TAP	83	24	5
TAP	83	48	1
TAP	83	72	5
TAP	83	96	1
TAP	83	120	5
TAP	83	144	0
TAP	83	168	4
TAP	83	192	0
TAP	83	216	4
TAP	83	240	0
TAP	83	264	4
TAP	83	288	7
TAP	83	312	3
TAP	83	336	7
TAP	83	360	3
TAP	84	0	7
TAP	84	24	3
TAP	84	48	6
TAP	84	72	2
TAP	84	96	6
TAP	84	120	2
TAP	84	144	6
TAP	84	168	2
STR	84	192	5
SCR	84	192	5	96	96	2
STR	85	0	3
SCL	85	0	3	96	864	4
SUR	85	0	3	96	864	4
BST	88	288	0
SI_	88	288	0	96	24	3
BST	88	288	7
SI_	88	288	7	96	24	4
BRK	88	336	0
BRK	88	336	7

T_REC_TAP	632
T_REC_BRK	13
T_REC_XTP	0
T_REC_HLD	26
T_REC_XHO	0
T_REC_STR	104
T_REC_BST	8
T_REC_XST	0
T_REC_TTP	0
T_REC_THO	0
T_REC_SLD	119
T_REC_ALL	902
T_NUM_TAP	736
T_NUM_BRK	21
T_NUM_HLD	26
T_NUM_SLD	119
T_NUM_ALL	902
T_JUDGE_TAP	757
T_JUDGE_HLD	72
T_JUDGE_SLD	119
T_JUDGE_ALL	948
TTM_EACHPAIRS	174
TTM_SCR_TAP	368000
TTM_SCR_BRK	54600
TTM_SCR_HLD	26000
TTM_SCR_SLD	178500
TTM_SCR_ALL	627100
TTM_SCR_S	606250
TTM_SCR_SS	625000
TTM_RAT_ACV	10033

