VERSION	0.00.00	1.03.00
FES_MODE	0
BPM_DEF	180.000	180.000	180.000	180.000
MET_DEF	4	4
RESOLUTION	384
CLK_DEF	384
COMPATIBLE_CODE	MA2

BPM	0	0	180.000
MET	0	0	4	4

HLD	1	0	1	144
HLD	1	144	2	144
HLD	1	288	3	144
HLD	2	48	4	144
TAP	2	192	5
TAP	2	288	4
TAP	2	288	6
HLD	3	0	6	144
HLD	3	144	5	144
HLD	3	288	4	144
HLD	4	48	3	144
TAP	4	192	2
TAP	4	288	1
TAP	4	288	3
HLD	5	0	2	144
HLD	5	144	4	144
HLD	5	288	5	144
HLD	6	48	7	144
TAP	6	192	0
TAP	6	288	1
TAP	6	288	6
HLD	7	0	5	144
HLD	7	144	3	144
HLD	7	288	2	144
HLD	8	48	0	144
TAP	8	192	7
BRK	8	288	1
BRK	8	288	6
TAP	9	0	7
TAP	9	96	0
TAP	9	96	6
TAP	9	192	6
TAP	9	288	5
TAP	9	288	7
TAP	10	0	5
TAP	10	48	4
TAP	10	96	5
TAP	10	144	4
TAP	10	192	5
TAP	10	288	3
TAP	10	288	6
TAP	11	0	0
TAP	11	96	1
TAP	11	96	7
TAP	11	192	1
TAP	11	288	0
TAP	11	288	2
TAP	12	0	2
TAP	12	48	3
TAP	12	96	2
TAP	12	144	3
TAP	12	192	2
TAP	12	288	1
TAP	12	288	4
TAP	13	0	6
TAP	13	48	7
TAP	13	96	0
TAP	13	96	6
TAP	13	192	1
TAP	13	240	0
TAP	13	288	1
TAP	13	288	7
TAP	14	0	2
TAP	14	48	5
TAP	14	96	3
TAP	14	144	4
TAP	14	192	2
TAP	14	288	0
TAP	14	288	7
TAP	15	0	0
HLD	15	0	1	96
TAP	15	96	2
HLD	15	192	4	96
TAP	15	192	5
TAP	15	288	3
TAP	16	0	0
TAP	16	0	7
TAP	16	96	1
TAP	16	96	6
TAP	16	192	2
TAP	16	192	5
BRK	16	288	3
TAP	17	0	5
TAP	17	48	4
TAP	17	96	5
TAP	17	144	4
TAP	17	192	5
TAP	17	288	3
TAP	17	288	6
TAP	18	0	1
TAP	18	48	0
TAP	18	96	2
TAP	18	144	7
TAP	18	192	3
TAP	18	240	6
TAP	18	288	4
TAP	18	336	5
STR	19	0	4
SCL	19	0	4	96	48	1
TAP	19	144	7
STR	19	192	7
SXL	19	192	7	96	192	3
TAP	20	288	0
TAP	20	288	7
TAP	21	0	2
TAP	21	48	3
TAP	21	96	2
TAP	21	144	3
TAP	21	192	2
TAP	21	288	1
TAP	21	288	4
TAP	22	0	6
TAP	22	48	7
TAP	22	96	5
TAP	22	144	0
TAP	22	192	4
TAP	22	240	1
TAP	22	288	3
TAP	22	336	2
STR	23	0	3
SXR	23	0	3	96	192	5
TAP	24	0	2
TAP	24	96	3
TAP	24	192	4
TAP	24	240	3
TAP	24	288	2
TAP	24	288	5
TAP	25	0	1
TAP	25	48	0
TAP	25	96	1
TAP	25	144	0
TAP	25	192	1
TAP	25	288	2
TAP	25	288	7
TAP	26	0	4
TAP	26	48	3
TAP	26	96	5
TAP	26	144	1
TAP	26	192	7
TAP	26	240	0
TAP	26	288	6
TAP	26	336	2
STR	27	0	4
SCR	27	0	4	96	48	7
TAP	27	144	0
STR	27	192	0
SXR	27	192	0	96	192	4
TAP	28	192	7
TAP	28	288	0
TAP	28	288	6
HLD	29	0	1	72
HLD	29	72	2	72
TAP	29	144	3
TAP	29	192	3
TAP	29	288	0
TAP	29	288	7
HLD	30	0	6	72
HLD	30	72	5	72
TAP	30	144	4
TAP	30	192	4
TAP	30	288	0
TAP	30	288	7
BST	31	0	2
SUR	31	0	2	96	192	5
BST	32	0	0
SXL	32	0	0	96	192	3
BST	32	0	7
SXR	32	0	7	96	192	4
TAP	33	0	0
TAP	33	0	1
TAP	33	48	0
TAP	33	48	1
TAP	33	96	2
TAP	33	96	7
TAP	33	192	6
TAP	33	192	7
TAP	33	240	6
TAP	33	240	7
TAP	33	288	0
TAP	33	288	5
STR	34	0	1
SI_	34	0	1	96	48	5
STR	34	96	6
SI_	34	96	6	96	48	2
STR	34	192	0
SI_	34	192	0	96	48	4
TAP	34	288	7
TAP	35	0	6
TAP	35	0	7
TAP	35	48	6
TAP	35	48	7
TAP	35	96	0
TAP	35	96	5
TAP	35	192	0
TAP	35	192	1
TAP	35	240	0
TAP	35	240	1
TAP	35	288	2
TAP	35	288	7
STR	36	0	6
SI_	36	0	6	96	48	2
STR	36	96	1
SI_	36	96	1	96	48	5
STR	36	192	7
SI_	36	192	7	96	48	3
TAP	36	288	0
TAP	37	0	4
TAP	37	0	5
TAP	37	48	4
TAP	37	48	5
TAP	37	96	3
TAP	37	96	6
TAP	37	192	2
TAP	37	192	3
TAP	37	240	2
TAP	37	240	3
TAP	37	288	1
TAP	37	288	4
STR	38	0	5
SI_	38	0	5	96	48	1
STR	38	96	2
SI_	38	96	2	96	48	6
STR	38	192	4
SI_	38	192	4	96	48	0
TAP	38	288	3
HLD	39	0	1	96
HLD	39	96	3	96
HLD	39	192	5	96
HLD	39	288	7	96
STR	40	0	0
SCL	40	0	0	96	96	4
SCR	40	0	0	96	96	4
TAP	41	0	2
TAP	41	48	3
TAP	41	96	2
TAP	41	144	5
TAP	41	192	4
TAP	41	240	5
TAP	41	288	2
TAP	41	336	3
TAP	42	0	2
TAP	42	48	5
TAP	42	96	4
TAP	42	144	5
BRK	42	192	0
BRK	42	192	7
BRK	42	288	1
BRK	42	288	6
TAP	43	0	1
TAP	43	48	0
TAP	43	96	1
TAP	43	144	6
TAP	43	192	7
TAP	43	240	6
TAP	43	288	1
TAP	43	336	0
TAP	44	0	1
TAP	44	48	6
TAP	44	96	7
TAP	44	144	6
TAP	44	192	3
TAP	44	192	4
TAP	44	288	2
TAP	44	288	5
TAP	45	0	0
HLD	45	0	1	144
HLD	45	144	3	144
TAP	45	288	4
HLD	46	0	6	144
TAP	46	0	7
HLD	46	144	4	144
TAP	46	288	3
HLD	47	0	0	144
TAP	47	0	7
HLD	47	144	2	144
TAP	47	288	3
TAP	48	0	0
HLD	48	0	7	144
HLD	48	144	5	144
TAP	48	288	4
BRK	49	0	3
BRK	49	0	6
TAP	50	0	1
TAP	50	0	4
TAP	50	192	2
TAP	50	240	3
TAP	50	288	2
TAP	51	0	1
TAP	51	0	4
TAP	51	48	1
TAP	51	48	4
TAP	52	0	3
TAP	52	0	6
TAP	52	192	5
TAP	52	240	4
TAP	52	288	5
TAP	53	0	2
TAP	53	0	7
TAP	53	48	2
TAP	53	48	7
TAP	54	0	0
TAP	54	0	5
TAP	54	192	6
TAP	54	240	7
TAP	54	288	6
HLD	55	0	6	96
HLD	55	96	4	96
HLD	55	192	2	96
HLD	55	288	0	96
BST	56	0	7
SCL	56	0	7	96	96	3
SCR	56	0	7	96	96	3
TAP	57	0	1
TAP	57	48	0
TAP	57	96	1
TAP	57	144	0
TAP	57	192	3
TAP	57	240	4
TAP	57	288	3
TAP	57	336	4
STR	58	0	7
SI_	58	0	7	96	48	2
STR	58	96	5
SI_	58	96	5	96	48	1
STR	58	192	3
SI_	58	192	3	96	48	0
TAP	58	288	6
TAP	59	0	6
TAP	59	48	7
TAP	59	96	6
TAP	59	144	7
TAP	59	192	4
TAP	59	240	3
TAP	59	288	4
TAP	59	336	3
STR	60	0	0
SI_	60	0	0	96	48	5
STR	60	96	2
SI_	60	96	2	96	48	6
STR	60	192	4
SI_	60	192	4	96	48	7
TAP	60	288	0
TAP	61	0	0
TAP	61	48	5
TAP	61	96	1
TAP	61	144	6
TAP	61	192	2
TAP	61	240	7
TAP	61	288	3
TAP	61	336	0
STR	62	0	4
SI_	62	0	4	96	48	0
STR	62	96	6
SI_	62	96	6	96	48	2
STR	62	192	1
SI_	62	192	1	96	48	5
TAP	62	288	7
STR	63	0	7
SUL	63	0	7	96	48	3
TAP	63	96	0
STR	63	192	0
SUR	63	192	0	96	48	4
TAP	63	288	7
STR	64	0	7
SXL	64	0	7	96	192	3
SXR	64	0	7	96	192	3
TAP	65	0	0
TAP	65	48	0
TAP	65	96	0
TAP	65	144	2
TAP	65	192	2
TAP	65	240	2
TAP	65	288	4
TAP	65	336	4
TAP	66	0	4
TAP	66	48	6
TAP	66	96	6
TAP	66	144	6
BST	66	192	0
SI_	66	192	0	96	48	4
BRK	66	288	7
TAP	67	0	7
TAP	67	48	7
TAP	67	96	7
TAP	67	144	5
TAP	67	192	5
TAP	67	240	5
TAP	67	288	3
TAP	67	336	3
TAP	68	0	3
TAP	68	48	1
TAP	68	96	1
TAP	68	144	1
STR	68	192	7
SI_	68	192	7	96	48	3
TAP	68	288	0
TAP	69	0	1
TAP	69	48	0
TAP	69	96	1
TAP	69	96	7
TAP	69	192	5
TAP	69	240	4
TAP	69	288	3
TAP	69	288	6
TAP	70	0	6
TAP	70	48	7
TAP	70	96	0
TAP	70	96	6
TAP	70	192	2
TAP	70	240	3
TAP	70	288	1
TAP	70	288	4
TAP	71	0	1
TAP	71	48	0
TAP	71	96	2
TAP	71	144	6
TAP	71	192	4
TAP	71	240	5
TAP	71	288	3
TAP	71	336	7
TAP	72	0	0
TAP	72	0	1
TAP	72	48	0
TAP	72	48	1
TAP	72	96	2
TAP	72	96	7
TAP	72	144	2
TAP	72	144	7
TAP	72	192	3
TAP	72	192	6
TAP	72	240	3
TAP	72	240	6
TAP	72	288	4
TAP	72	288	5
TAP	73	0	6
TAP	73	48	7
TAP	73	96	0
TAP	73	96	6
TAP	73	192	2
TAP	73	240	3
TAP	73	288	1
TAP	73	288	4
TAP	74	0	1
TAP	74	48	0
TAP	74	96	1
TAP	74	96	7
TAP	74	192	5
TAP	74	240	4
TAP	74	288	3
TAP	74	288	6
TAP	75	0	6
TAP	75	48	7
TAP	75	96	5
TAP	75	144	1
TAP	75	192	3
TAP	75	240	2
TAP	75	288	4
TAP	75	336	0
TAP	76	0	6
TAP	76	0	7
TAP	76	48	6
TAP	76	48	7
TAP	76	96	0
TAP	76	96	5
TAP	76	144	0
TAP	76	144	5
TAP	76	192	1
TAP	76	192	4
TAP	76	240	1
TAP	76	240	4
TAP	76	288	2
TAP	76	288	3
TAP	77	0	2
TAP	77	48	4
TAP	77	96	3
TAP	77	144	5
TAP	77	192	3
TAP	77	240	4
TAP	77	288	2
TAP	77	336	4
TAP	78	0	3
TAP	78	48	5
TAP	78	96	3
TAP	78	144	4
STR	78	192	0
SI_	78	192	0	96	48	4
TAP	78	288	7
TAP	79	0	6
TAP	79	48	3
TAP	79	96	4
TAP	79	144	1
TAP	79	192	4
TAP	79	240	3
TAP	79	288	6
TAP	79	336	3
TAP	80	0	4
TAP	80	48	1
TAP	80	96	4
TAP	80	144	3
STR	80	192	7
SI_	80	192	7	96	48	3
TAP	80	288	0
TAP	81	0	1
TAP	81	48	5
TAP	81	96	3
TAP	81	144	6
TAP	81	192	2
TAP	81	240	4
TAP	81	288	1
TAP	81	336	5
TAP	82	0	3
TAP	82	48	6
TAP	82	96	2
TAP	82	144	4
STR	82	192	0
SI_	82	192	0	96	48	4
TAP	82	288	7
TAP	83	0	7
TAP	83	48	2
TAP	83	96	4
TAP	83	144	0
TAP	83	192	5
TAP	83	240	3
TAP	83	288	7
TAP	83	336	2
TAP	84	0	4
TAP	84	48	0
TAP	84	96	5
TAP	84	144	3
STR	84	192	7
SI_	84	192	7	96	48	3
TAP	84	288	0
BST	85	0	0
SCR	85	0	0	96	1056	7
TAP	88	288	3
TAP	88	336	4

T_REC_TAP	409
T_REC_BRK	10
T_REC_XTP	0
T_REC_HLD	38
T_REC_XHO	0
T_REC_STR	32
T_REC_BST	6
T_REC_XST	0
T_REC_TTP	0
T_REC_THO	0
T_REC_SLD	41
T_REC_ALL	536
T_NUM_TAP	441
T_NUM_BRK	16
T_NUM_HLD	38
T_NUM_SLD	41
T_NUM_ALL	536
T_JUDGE_TAP	457
T_JUDGE_HLD	100
T_JUDGE_SLD	41
T_JUDGE_ALL	598
TTM_EACHPAIRS	83
TTM_SCR_TAP	220500
TTM_SCR_BRK	41600
TTM_SCR_HLD	38000
TTM_SCR_SLD	61500
TTM_SCR_ALL	361600
TTM_SCR_S	349200
TTM_SCR_SS	360000
TTM_RAT_ACV	10044

