VERSION	0.00.00	1.03.00
FES_MODE	0
BPM_DEF	180.000	180.000	180.000	180.000
MET_DEF	4	4
RESOLUTION	384
CLK_DEF	384
COMPATIBLE_CODE	MA2

BPM	0	0	180.000
MET	0	0	4	4

HLD	1	0	2	96
HLD	1	0	3	96
TAP	1	144	2
TAP	1	144	3
HLD	1	288	2	96
HLD	1	288	3	96
TAP	2	48	2
TAP	2	48	3
TAP	2	192	2
TAP	2	192	3
TAP	2	288	2
TAP	2	288	3
HLD	3	0	4	96
HLD	3	0	5	96
TAP	3	144	4
TAP	3	144	5
HLD	3	288	4	96
HLD	3	288	5	96
TAP	4	48	4
TAP	4	48	5
TAP	4	192	4
TAP	4	192	5
TAP	4	288	4
TAP	4	288	5
HLD	5	0	2	96
HLD	5	0	3	96
TAP	5	144	2
TAP	5	144	3
HLD	5	288	2	96
HLD	5	288	3	96
TAP	6	48	2
TAP	6	48	3
TAP	6	192	1
TAP	6	192	3
TAP	6	288	1
TAP	6	288	3
HLD	7	0	4	96
HLD	7	0	5	96
TAP	7	144	4
TAP	7	144	5
HLD	7	288	4	96
HLD	7	288	5	96
TAP	8	48	4
TAP	8	48	5
TAP	8	192	4
TAP	8	192	6
TAP	8	288	4
TAP	8	288	6
TAP	9	0	2
TAP	9	96	2
TAP	9	192	3
TAP	9	288	3
TAP	10	0	2
TAP	10	96	3
TAP	10	192	1
TAP	10	192	4
TAP	11	0	5
TAP	11	96	5
TAP	11	192	4
TAP	11	288	4
TAP	12	0	5
TAP	12	96	4
TAP	12	192	3
TAP	12	192	6
TAP	13	0	1
TAP	13	96	1
TAP	13	192	0
TAP	13	288	0
TAP	14	0	1
TAP	14	96	0
TAP	14	192	2
TAP	14	192	7
HLD	15	0	5	96
TAP	15	96	4
HLD	15	192	2	96
TAP	15	288	3
TAP	16	0	4
TAP	16	0	5
TAP	16	96	3
TAP	16	96	6
TAP	16	192	2
TAP	16	192	7
HLD	17	0	1	192
TAP	17	192	0
TAP	17	288	0
TAP	17	288	1
HLD	18	0	6	192
TAP	18	192	7
TAP	18	288	6
TAP	18	288	7
HLD	19	0	1	192
TAP	19	192	0
TAP	19	288	0
TAP	19	288	2
HLD	20	0	6	192
TAP	20	192	7
TAP	20	288	5
TAP	20	288	7
HLD	21	0	2	192
TAP	21	192	0
TAP	21	288	0
TAP	21	288	1
HLD	22	0	5	192
TAP	22	192	7
TAP	22	288	6
TAP	22	288	7
STR	23	0	2
SCL	23	0	2	96	288	5
HLD	25	0	5	288
TAP	25	96	4
TAP	25	192	4
TAP	25	288	4
HLD	26	0	2	288
TAP	26	96	3
TAP	26	192	3
TAP	26	288	3
HLD	27	0	5	288
TAP	27	96	4
TAP	27	192	4
TAP	27	288	4
HLD	28	0	2	288
TAP	28	96	3
TAP	28	192	3
TAP	28	288	3
HLD	29	0	6	288
TAP	29	96	4
TAP	29	192	4
TAP	29	288	4
HLD	30	0	1	288
TAP	30	96	3
TAP	30	192	3
TAP	30	288	3
STR	31	0	6
SCL	31	0	6	96	288	1
TAP	33	0	1
TAP	33	96	0
TAP	33	192	1
TAP	33	288	0
TAP	34	0	2
TAP	34	0	7
TAP	34	96	3
TAP	34	96	6
TAP	34	192	4
TAP	34	192	5
TAP	35	0	6
TAP	35	96	7
TAP	35	192	6
TAP	35	288	7
TAP	36	0	0
TAP	36	0	5
TAP	36	96	1
TAP	36	96	4
TAP	36	192	2
TAP	36	192	3
TAP	37	0	5
TAP	37	96	4
TAP	37	192	5
TAP	37	288	4
TAP	38	0	3
TAP	38	0	6
TAP	38	96	2
TAP	38	96	7
TAP	38	192	0
TAP	38	192	1
HLD	39	0	6	96
TAP	39	96	7
HLD	39	192	1	96
TAP	39	288	0
TAP	40	0	0
TAP	40	0	7
TAP	40	96	0
TAP	40	96	7
BRK	40	192	1
BRK	40	192	6
HLD	41	0	1	96
HLD	41	0	3	96
TAP	41	144	1
TAP	41	144	3
HLD	41	288	1	96
HLD	41	288	3	96
TAP	42	48	1
TAP	42	48	3
TAP	42	192	3
TAP	42	192	4
TAP	42	288	3
TAP	42	288	4
HLD	43	0	4	96
HLD	43	0	6	96
TAP	43	144	4
TAP	43	144	6
HLD	43	288	4	96
HLD	43	288	6	96
TAP	44	48	4
TAP	44	48	6
TAP	44	192	3
TAP	44	192	4
TAP	44	288	3
TAP	44	288	4
STR	45	0	0
SI_	45	0	0	96	192	4
STR	46	0	7
SI_	46	0	7	96	192	3
STR	47	0	0
SSL	47	0	0	96	288	4
TAP	49	0	0
TAP	49	0	7
TAP	49	48	0
TAP	49	48	7
TAP	50	0	6
TAP	50	96	5
TAP	50	192	4
TAP	51	0	0
TAP	51	0	7
TAP	51	48	0
TAP	51	48	7
TAP	52	0	1
TAP	52	96	2
TAP	52	192	3
TAP	53	0	0
TAP	53	0	7
TAP	53	48	0
TAP	53	48	7
TAP	54	0	1
TAP	54	0	6
TAP	54	96	2
TAP	54	96	5
TAP	54	192	3
TAP	54	192	4
TAP	55	0	0
TAP	55	0	7
TAP	55	48	0
TAP	55	48	7
TAP	56	0	3
TAP	56	0	4
TAP	56	96	2
TAP	56	96	5
TAP	56	192	1
TAP	56	192	6
TAP	57	0	2
TAP	57	96	2
TAP	57	96	3
TAP	57	192	5
TAP	57	288	4
TAP	57	288	5
TAP	58	0	2
TAP	58	96	2
TAP	58	96	3
TAP	58	192	0
TAP	58	192	5
TAP	59	0	5
TAP	59	96	4
TAP	59	96	5
TAP	59	192	2
TAP	59	288	2
TAP	59	288	3
TAP	60	0	5
TAP	60	96	4
TAP	60	96	5
TAP	60	192	2
TAP	60	192	7
TAP	61	0	2
TAP	61	96	2
TAP	61	96	3
TAP	61	192	5
TAP	61	288	4
TAP	61	288	5
TAP	62	0	2
TAP	62	96	2
TAP	62	96	3
TAP	62	192	0
TAP	62	192	5
TAP	63	0	6
TAP	63	96	5
TAP	63	96	7
TAP	63	192	1
TAP	63	288	0
TAP	63	288	2
BRK	64	0	1
BRK	64	0	6
HLD	65	0	0	96
HLD	65	0	2	96
TAP	65	144	0
TAP	65	144	2
HLD	65	288	0	96
HLD	65	288	2	96
TAP	66	48	0
TAP	66	48	2
TAP	66	192	0
TAP	66	192	1
TAP	66	288	0
TAP	66	288	1
HLD	67	0	5	96
HLD	67	0	7	96
TAP	67	144	5
TAP	67	144	7
HLD	67	288	5	96
HLD	67	288	7	96
TAP	68	48	5
TAP	68	48	7
TAP	68	192	6
TAP	68	192	7
TAP	68	288	6
TAP	68	288	7
STR	69	0	0
SCR	69	0	0	96	480	7
TAP	71	0	1
TAP	71	96	2
TAP	71	192	3
TAP	71	288	4
TAP	72	0	5
TAP	72	96	6
TAP	72	192	0
TAP	72	192	7
TAP	73	0	6
TAP	73	96	5
TAP	73	192	4
TAP	73	288	3
TAP	74	0	2
TAP	74	96	1
TAP	74	192	0
TAP	74	192	7
TAP	75	0	0
TAP	75	0	7
TAP	75	96	0
TAP	75	96	7
TAP	75	192	1
TAP	75	192	6
TAP	75	288	1
TAP	75	288	6
TAP	76	0	2
TAP	76	0	5
TAP	76	96	2
TAP	76	96	5
TAP	76	192	3
TAP	76	192	4
HLD	77	0	2	96
HLD	77	0	3	96
TAP	77	144	2
TAP	77	144	3
HLD	77	288	4	96
HLD	77	288	5	96
TAP	78	48	4
TAP	78	48	5
TAP	78	192	0
TAP	78	192	7
TAP	78	288	0
TAP	78	288	7
HLD	79	0	0	96
HLD	79	0	1	96
TAP	79	144	0
TAP	79	144	1
HLD	79	288	6	96
HLD	79	288	7	96
TAP	80	48	6
TAP	80	48	7
TAP	80	192	1
TAP	80	192	6
TAP	80	288	1
TAP	80	288	6
HLD	81	0	1	96
HLD	81	0	3	96
TAP	81	144	1
TAP	81	144	3
HLD	81	288	4	96
HLD	81	288	6	96
TAP	82	48	4
TAP	82	48	6
TAP	82	192	0
TAP	82	192	7
TAP	82	288	0
TAP	82	288	7
HLD	83	0	0	96
HLD	83	0	2	96
TAP	83	144	0
TAP	83	144	2
HLD	83	288	5	96
HLD	83	288	7	96
TAP	84	48	5
TAP	84	48	7
TAP	84	192	1
TAP	84	192	6
TAP	84	288	1
TAP	84	288	6
STR	85	0	0
SXL	85	0	0	96	672	3
STR	85	0	7
SXR	85	0	7	96	672	4

T_REC_TAP	303
T_REC_BRK	4
T_REC_XTP	0
T_REC_HLD	64
T_REC_XHO	0
T_REC_STR	8
T_REC_BST	0
T_REC_XST	0
T_REC_TTP	0
T_REC_THO	0
T_REC_SLD	8
T_REC_ALL	387
T_NUM_TAP	311
T_NUM_BRK	4
T_NUM_HLD	64
T_NUM_SLD	8
T_NUM_ALL	387
T_JUDGE_TAP	315
T_JUDGE_HLD	164
T_JUDGE_SLD	8
T_JUDGE_ALL	487
TTM_EACHPAIRS	135
TTM_SCR_TAP	155500
TTM_SCR_BRK	10400
TTM_SCR_HLD	64000
TTM_SCR_SLD	12000
TTM_SCR_ALL	241900
TTM_SCR_S	234300
TTM_SCR_SS	241500
TTM_RAT_ACV	10016

