VERSION	0.00.00	1.03.00
FES_MODE	0
BPM_DEF	180.000	180.000	180.000	180.000
MET_DEF	4	4
RESOLUTION	384
CLK_DEF	384
COMPATIBLE_CODE	MA2

BPM	0	0	180.000
MET	0	0	4	4

HLD	1	0	0	576
HLD	3	0	7	576
HLD	5	0	1	576
HLD	7	0	6	576
TAP	9	0	0
TAP	9	192	0
TAP	10	0	1
TAP	10	96	1
TAP	10	192	1
TAP	11	0	2
TAP	11	192	2
TAP	12	0	3
TAP	12	96	3
TAP	12	192	3
TAP	13	0	4
TAP	13	192	4
TAP	14	0	5
TAP	14	96	5
TAP	14	192	5
TAP	15	0	6
TAP	15	192	6
TAP	16	0	7
TAP	16	96	7
TAP	16	192	7
TAP	17	0	7
TAP	17	192	7
TAP	18	0	6
TAP	18	0	7
TAP	18	192	6
TAP	18	192	7
STR	19	0	7
SI_	19	0	7	96	288	3
TAP	21	0	0
TAP	21	192	0
TAP	22	0	0
TAP	22	0	1
TAP	22	192	0
TAP	22	192	1
STR	23	0	0
SI_	23	0	0	96	288	4
TAP	25	0	7
TAP	25	192	7
TAP	26	0	6
TAP	26	192	6
TAP	27	0	5
TAP	27	192	5
TAP	28	0	4
TAP	28	192	4
HLD	29	0	2	192
HLD	29	0	3	192
HLD	30	0	4	192
HLD	30	0	5	192
STR	31	0	3
SI_	31	0	3	96	288	0
STR	31	0	4
SI_	31	0	4	96	288	7
TAP	33	0	0
TAP	33	96	0
TAP	33	192	0
TAP	33	288	0
TAP	34	0	1
TAP	34	96	1
TAP	34	192	1
TAP	35	0	2
TAP	35	96	2
TAP	35	192	2
TAP	35	288	2
TAP	36	0	3
TAP	36	96	3
TAP	36	192	3
TAP	37	0	4
TAP	37	96	4
TAP	37	192	4
TAP	37	288	4
TAP	38	0	5
TAP	38	96	5
TAP	38	192	5
TAP	39	0	6
TAP	39	96	6
TAP	39	192	6
TAP	39	288	6
HLD	40	0	0	192
HLD	40	0	7	192
STR	41	0	0
SI_	41	0	0	96	288	5
STR	43	0	7
SI_	43	0	7	96	288	2
HLD	45	0	1	768
HLD	45	0	6	768
TAP	49	0	0
TAP	49	0	7
TAP	50	0	1
TAP	50	0	6
TAP	51	0	0
TAP	51	0	1
TAP	52	0	1
TAP	52	0	7
TAP	53	0	6
TAP	53	0	7
TAP	54	0	0
TAP	54	0	6
TAP	55	0	0
TAP	55	192	7
BRK	56	0	1
BRK	56	0	6
TAP	57	0	1
TAP	57	96	1
TAP	57	192	2
TAP	57	288	2
TAP	58	0	3
TAP	58	96	3
TAP	58	192	3
TAP	58	192	4
TAP	59	0	4
TAP	59	96	4
TAP	59	192	5
TAP	59	288	5
TAP	60	0	6
TAP	60	96	6
TAP	60	192	6
TAP	60	192	7
TAP	61	0	0
TAP	61	96	0
TAP	61	192	1
TAP	61	288	1
TAP	62	0	2
TAP	62	96	2
TAP	62	192	2
TAP	62	192	3
TAP	63	0	2
TAP	63	0	4
TAP	63	192	3
TAP	63	192	5
HLD	64	0	2	192
HLD	64	0	5	192
STR	65	0	3
SI_	65	0	3	96	288	6
STR	67	0	4
SI_	67	0	4	96	288	1
TAP	69	0	0
TAP	69	192	0
TAP	70	0	1
TAP	70	192	1
TAP	71	0	2
TAP	71	192	2
TAP	72	0	3
TAP	72	96	3
TAP	72	192	3
TAP	73	0	4
TAP	73	192	4
TAP	74	0	5
TAP	74	192	5
TAP	75	0	6
TAP	75	192	6
TAP	76	0	7
TAP	76	96	7
TAP	76	192	7
STR	77	0	0
SI_	77	0	0	96	288	4
STR	79	0	7
SI_	79	0	7	96	288	3
STR	81	0	1
SI_	81	0	1	96	288	5
STR	83	0	6
SI_	83	0	6	96	288	2
TAP	85	0	0
TAP	85	0	7

T_REC_TAP	127
T_REC_BRK	2
T_REC_XTP	0
T_REC_HLD	14
T_REC_XHO	0
T_REC_STR	12
T_REC_BST	0
T_REC_XST	0
T_REC_TTP	0
T_REC_THO	0
T_REC_SLD	12
T_REC_ALL	167
T_NUM_TAP	139
T_NUM_BRK	2
T_NUM_HLD	14
T_NUM_SLD	12
T_NUM_ALL	167
T_JUDGE_TAP	141
T_JUDGE_HLD	112
T_JUDGE_SLD	12
T_JUDGE_ALL	265
TTM_EACHPAIRS	23
TTM_SCR_TAP	69500
TTM_SCR_BRK	5200
TTM_SCR_HLD	14000
TTM_SCR_SLD	18000
TTM_SCR_ALL	106700
TTM_SCR_S	103350
TTM_SCR_SS	106500
TTM_RAT_ACV	10018

