VERSION	0.00.00	1.03.00
FES_MODE	0
BPM_DEF	164.000	164.000	164.000	164.000
MET_DEF	4	4
RESOLUTION	384
CLK_DEF	384
COMPATIBLE_CODE	MA2

BPM	0	0	164.000
MET	0	0	4	4

TAP	2	0	0
TAP	2	0	4
TAP	2	48	1
TAP	2	96	2
HLD	2	144	3	96
TAP	2	144	7
TAP	2	240	6
TAP	2	288	5
TAP	2	336	0
HLD	2	336	4	96
TAP	3	48	1
TAP	3	96	2
TAP	3	144	3
TAP	3	192	7
TAP	3	240	0
TAP	3	288	1
TAP	3	336	2
TAP	4	0	3
TAP	4	0	4
TAP	4	48	5
TAP	4	96	6
TAP	4	144	3
HLD	4	144	7	96
TAP	4	240	2
TAP	4	288	1
HLD	4	336	0	96
TAP	4	336	4
TAP	5	48	5
TAP	5	96	6
TAP	5	144	7
TAP	5	192	1
TAP	5	240	2
TAP	5	288	3
TAP	5	336	4
TAP	6	0	1
TAP	6	0	5
TAP	6	48	2
TAP	6	96	3
TAP	6	144	0
HLD	6	144	4	96
TAP	6	240	7
TAP	6	288	6
TAP	6	336	1
HLD	6	336	5	96
TAP	7	48	2
TAP	7	96	3
TAP	7	144	4
TAP	7	192	6
TAP	7	240	7
TAP	7	288	0
TAP	7	336	1
TAP	8	0	2
TAP	8	0	6
TAP	8	48	5
TAP	8	96	4
HLD	8	144	3	96
TAP	8	144	7
TAP	8	240	0
TAP	8	288	1
HLD	8	336	2	96
TAP	8	336	6
TAP	9	48	4
TAP	9	96	5
STR	9	144	6
SI_	9	144	6	96	48	2
BRK	9	240	0
STR	9	288	0
SCR	9	288	0	96	336	7
HLD	10	0	0	432
TAP	11	48	7
TAP	11	144	4
TAP	11	144	5
TAP	11	192	3
TAP	11	192	6
STR	11	288	0
SI_	11	288	0	96	48	4
TAP	11	288	4
TAP	12	0	7
TAP	12	96	2
TAP	12	96	6
STR	12	144	1
SCL	12	144	1	96	96	6
TAP	12	144	5
STR	12	240	6
SCL	12	240	6	96	96	3
STR	12	336	3
SCL	12	336	3	96	96	0
TAP	13	48	7
TAP	13	96	6
TAP	13	144	5
TAP	13	240	6
TAP	13	240	7
TAP	13	288	0
STR	13	288	5
SCR	13	288	5	96	336	4
HLD	14	0	5	432
TAP	15	48	0
TAP	15	144	2
TAP	15	144	3
TAP	15	192	1
TAP	15	192	4
TAP	15	264	3
TAP	15	264	7
TAP	15	336	1
TAP	15	336	5
STR	16	0	2
SCR	16	0	2	96	48	5
TAP	16	0	6
TAP	16	96	1
TAP	16	144	0
TAP	16	240	6
TAP	16	240	7
TAP	16	288	0
TAP	16	288	5
TAP	17	0	1
STR	17	0	5
SCL	17	0	5	96	48	2
TAP	17	96	6
TAP	17	144	7
TAP	17	240	0
TAP	17	240	1
STR	17	288	2
SCL	17	288	2	96	336	3
TAP	17	288	7
HLD	18	0	2	432
TAP	19	48	7
STR	19	96	7
SXR	19	96	7	96	48	5
STR	19	192	3
SXR	19	192	3	96	48	1
TAP	19	288	6
TAP	20	0	3
TAP	20	0	7
TAP	20	96	1
TAP	20	96	5
TAP	20	144	2
STR	20	144	6
SCR	20	144	6	96	96	1
STR	20	240	1
SCR	20	240	1	96	96	4
STR	20	336	4
SCR	20	336	4	96	96	7
TAP	21	48	0
TAP	21	96	1
TAP	21	144	2
TAP	21	240	0
TAP	21	240	1
TAP	21	288	2
TAP	21	288	7
TAP	21	336	6
STR	22	0	6
SI_	22	0	6	96	48	3
TAP	22	96	7
STR	22	144	7
SI_	22	144	7	96	48	2
STR	22	240	5
SCL	22	240	5	96	48	2
STR	22	336	1
SI_	22	336	1	96	48	4
TAP	23	96	0
STR	23	144	0
SI_	23	144	0	96	48	5
STR	23	240	2
SUL	23	240	2	96	96	5
STR	24	0	4
SCR	24	0	4	96	96	7
TAP	24	96	3
STR	24	144	3
SCL	24	144	3	96	96	0
STR	24	240	0
SCL	24	240	0	96	96	5
STR	24	336	5
SCL	24	336	5	96	96	2
TAP	25	48	7
TAP	25	96	6
TAP	25	144	5
TAP	25	240	3
TAP	25	240	4
TAP	25	288	1
TAP	25	288	6
STR	26	0	0
SI_	26	0	0	96	48	3
STR	26	0	4
SI_	26	0	4	96	48	7
STR	26	192	3
SCL	26	192	3	96	48	0
STR	26	192	7
SCL	26	192	7	96	48	4
STR	27	0	0
SCR	27	0	0	96	48	3
STR	27	0	4
SUL	27	0	4	96	48	7
STR	27	192	3
SUR	27	192	3	96	48	0
STR	27	192	7
SCL	27	192	7	96	48	4
STR	28	0	0
SV_	28	0	0	96	48	2
STR	28	0	4
SV_	28	0	4	96	48	6
STR	28	192	2
SUR	28	192	2	96	48	7
STR	28	192	6
SCL	28	192	6	96	48	3
STR	29	0	3
SUL	29	0	3	96	48	6
STR	29	0	7
SCR	29	0	7	96	48	2
STR	29	192	2
SXR	29	192	2	96	48	0
STR	29	192	6
SXR	29	192	6	96	48	4
STR	30	0	0
SUR	30	0	0	96	48	4
STR	30	0	4
SUR	30	0	4	96	48	0
STR	30	192	0
SI_	30	192	0	96	48	5
STR	30	192	4
SI_	30	192	4	96	48	1
STR	31	0	1
SV_	31	0	1	96	48	3
STR	31	0	5
SV_	31	0	5	96	48	7
STR	31	192	3
SXR	31	192	3	96	48	2
STR	31	192	7
SXR	31	192	7	96	48	6
STR	32	0	2
SCL	32	0	2	96	48	7
STR	32	0	6
SCL	32	0	6	96	48	3
STR	32	192	3
SUR	32	192	3	96	48	0
STR	32	192	7
SUR	32	192	7	96	48	4
STR	33	0	0
SCL	33	0	0	96	48	5
STR	33	0	4
SCL	33	0	4	96	48	1
STR	33	192	1
SXR	33	192	1	96	288	6
STR	33	192	5
SXR	33	192	5	96	288	2
TAP	35	0	3
TAP	35	24	7
TAP	35	48	3
TAP	35	72	7
TAP	35	96	2
TAP	35	120	6
TAP	35	144	2
TAP	35	168	6
TAP	35	192	1
TAP	35	192	5
TAP	35	208	0
TAP	35	208	4
TAP	35	224	3
TAP	35	224	7
BRK	35	240	2
BRK	35	240	6
STR	36	0	5
SCL	36	0	5	96	96	2
STR	36	96	2
SUR	36	96	2	96	96	6
STR	36	192	6
SCR	36	192	6	96	96	1
STR	36	288	1
SCL	36	288	1	96	192	4
TAP	36	336	2
TAP	37	0	3
TAP	37	96	2
TAP	37	192	1
TAP	37	288	0
TAP	37	288	5
STR	38	0	2
SCL	38	0	2	96	48	7
STR	38	0	7
SCL	38	0	7	96	48	4
STR	38	96	7
SI_	38	96	7	96	48	3
TAP	38	192	4
TAP	38	288	2
TAP	38	336	1
STR	39	0	0
SCR	39	0	0	96	48	3
STR	39	0	5
SCR	39	0	5	96	48	0
STR	39	96	0
SI_	39	96	0	96	48	4
TAP	39	192	3
TAP	39	288	5
TAP	39	336	6
HLD	40	0	0	96
TAP	40	0	7
TAP	40	96	7
TAP	40	144	1
TAP	40	192	2
TAP	40	192	6
TAP	40	240	3
TAP	40	288	4
HLD	40	336	3	144
TAP	41	0	6
STR	41	96	4
SI_	41	96	4	96	48	1
TAP	41	192	6
TAP	41	288	0
TAP	41	288	4
TAP	41	336	1
STR	42	0	2
SI_	42	0	2	96	48	7
TAP	42	0	5
TAP	42	96	4
TAP	42	192	6
STR	42	192	7
SCR	42	192	7	96	48	2
TAP	42	288	5
TAP	43	0	3
TAP	43	0	4
STR	43	48	3
SCL	43	48	3	96	48	1
STR	43	48	4
SCR	43	48	4	96	48	6
STR	43	144	3
SUR	43	144	3	96	72	7
STR	43	144	4
SUL	43	144	4	96	72	0
STR	44	0	2
SCR	44	0	2	96	96	5
STR	44	96	5
SUL	44	96	5	96	96	1
STR	44	192	1
SCL	44	192	1	96	96	6
STR	44	288	6
SCR	44	288	6	96	192	3
TAP	44	336	5
TAP	45	0	4
TAP	45	96	5
TAP	45	192	6
TAP	45	288	2
TAP	45	288	7
STR	46	0	0
SCR	46	0	0	96	48	3
STR	46	0	5
SCR	46	0	5	96	48	0
STR	46	96	0
SI_	46	96	0	96	48	4
TAP	46	192	3
TAP	46	288	5
TAP	46	336	6
STR	47	0	2
SCL	47	0	2	96	48	7
STR	47	0	7
SCL	47	0	7	96	48	4
STR	47	96	7
SI_	47	96	7	96	48	3
TAP	47	192	4
TAP	47	288	2
TAP	47	336	1
TAP	48	0	0
HLD	48	0	7	96
TAP	48	96	0
TAP	48	144	6
TAP	48	192	1
TAP	48	192	5
TAP	48	240	4
TAP	48	288	3
HLD	48	336	4	144
TAP	49	0	1
STR	49	96	3
SI_	49	96	3	96	48	6
TAP	49	192	1
TAP	49	288	3
TAP	49	288	7
TAP	49	336	6
TAP	50	0	2
STR	50	0	5
SCL	50	0	5	96	48	2
TAP	50	96	0
STR	50	144	0
SCL	50	144	0	96	48	5
TAP	50	240	3
STR	50	288	3
SCL	50	288	3	96	48	0
TAP	51	0	6
STR	51	48	6
SCL	51	48	6	96	48	3
TAP	51	144	1
STR	51	192	1
SI_	51	192	1	96	48	5
BRK	51	288	6
STR	52	0	5
SUR	52	0	5	96	96	2
STR	52	96	2
SCR	52	96	2	96	96	5
STR	52	192	5
SCR	52	192	5	96	96	0
TAP	52	288	0
TAP	52	336	1
STR	53	0	2
SUL	53	0	2	96	96	5
STR	53	96	5
SCL	53	96	5	96	96	2
STR	53	192	2
SCL	53	192	2	96	96	7
TAP	53	288	7
TAP	53	336	6
HLD	54	0	5	96
HLD	54	96	6	96
HLD	54	192	7	96
TAP	54	288	3
TAP	54	336	4
HLD	55	0	2	96
HLD	55	96	1	96
HLD	55	192	0	96
TAP	55	288	5
TAP	55	336	4
HLD	56	0	3	96
TAP	56	0	6
STR	56	96	4
SI_	56	96	4	96	48	1
TAP	56	192	6
TAP	56	288	2
TAP	56	336	3
TAP	57	0	1
HLD	57	0	4	96
STR	57	96	3
SI_	57	96	3	96	48	6
TAP	57	192	1
TAP	57	288	3
TAP	57	288	7
TAP	57	336	6
TAP	58	0	2
STR	58	0	5
SI_	58	0	5	96	48	0
TAP	58	96	3
STR	58	192	0
SCL	58	192	0	96	48	5
TAP	58	192	1
TAP	58	288	2
TAP	59	0	3
TAP	59	0	4
STR	59	48	3
SV_	59	48	3	96	48	1
STR	59	48	4
SI_	59	48	4	96	48	0
STR	59	144	3
SI_	59	144	3	96	48	7
STR	59	144	4
SV_	59	144	4	96	48	6
STR	60	0	2
SUL	60	0	2	96	96	5
STR	60	96	5
SCL	60	96	5	96	96	2
STR	60	192	2
SCL	60	192	2	96	96	7
TAP	60	288	7
TAP	60	336	6
STR	61	0	5
SUR	61	0	5	96	96	2
STR	61	96	2
SCR	61	96	2	96	96	5
STR	61	192	5
SCR	61	192	5	96	96	0
TAP	61	288	0
TAP	61	336	1
HLD	62	0	2	96
HLD	62	96	1	96
HLD	62	192	0	96
TAP	62	288	7
TAP	62	336	0
STR	63	0	2
SCL	63	0	2	96	48	0
STR	63	0	5
SCL	63	0	5	96	48	2
STR	63	96	2
SCR	63	96	2	96	48	5
STR	63	96	5
SCR	63	96	5	96	48	7
TAP	63	336	2
TAP	63	336	3
TAP	64	0	1
HLD	64	0	4	96
STR	64	96	3
SI_	64	96	3	96	48	6
TAP	64	144	2
TAP	64	192	1
TAP	64	288	5
TAP	64	336	4
HLD	65	0	3	96
TAP	65	0	6
STR	65	96	4
SI_	65	96	4	96	48	1
TAP	65	192	6
TAP	65	288	0
TAP	65	288	4
TAP	65	336	1
STR	66	0	2
SCR	66	0	2	96	48	5
TAP	66	0	5
TAP	66	96	7
STR	66	144	7
SCR	66	144	7	96	48	2
TAP	66	240	4
STR	66	288	4
SCR	66	288	4	96	48	7
TAP	67	0	1
STR	67	48	1
SCR	67	48	1	96	48	4
TAP	67	144	6
STR	67	192	6
SI_	67	192	6	96	48	2
BRK	67	288	1
HLD	68	0	3	288
TAP	68	96	4
TAP	68	192	2
TAP	68	288	1
TAP	69	0	0
STR	69	0	3
SI_	69	0	3	96	48	0
TAP	69	96	7
STR	69	192	0
SCR	69	192	0	96	48	3
TAP	69	192	6
TAP	69	288	5
TAP	69	336	4
HLD	70	0	4	288
TAP	70	96	3
TAP	70	192	5
TAP	70	288	6
STR	71	0	4
SI_	71	0	4	96	48	7
TAP	71	0	7
TAP	71	96	0
TAP	71	192	1
STR	71	192	7
SCL	71	192	7	96	48	4
TAP	71	288	2
TAP	71	336	3
HLD	72	0	3	96
TAP	72	96	4
HLD	72	192	2	96
TAP	72	192	5
TAP	72	288	3
TAP	72	336	2
TAP	73	0	4
TAP	73	48	1
HLD	73	96	1	96
TAP	73	96	5
STR	73	192	2
SCR	73	192	2	96	48	5
TAP	73	288	6
TAP	74	0	0
TAP	74	0	7
TAP	74	96	3
TAP	74	96	6
TAP	74	144	2
TAP	74	192	1
TAP	74	192	4
TAP	74	288	3
TAP	74	288	6
HLD	74	336	3	96
TAP	75	0	4
STR	75	48	4
SUL	75	48	4	96	96	3
STR	75	144	3
SCL	75	144	3	96	96	4
HLD	76	0	0	288
TAP	76	96	7
TAP	76	192	1
TAP	76	288	2
STR	77	0	0
SCR	77	0	0	96	48	3
TAP	77	0	3
TAP	77	96	4
STR	77	192	3
SCL	77	192	3	96	48	0
TAP	77	192	5
TAP	77	288	6
TAP	77	336	7
STR	78	0	7
SCL	78	0	7	96	48	4
TAP	78	96	0
TAP	78	192	3
STR	78	192	4
SCR	78	192	4	96	48	7
TAP	78	288	0
TAP	78	336	0
HLD	79	0	7	288
TAP	79	96	0
TAP	79	192	6
TAP	79	288	5
TAP	80	0	4
STR	80	0	7
SI_	80	0	7	96	48	3
TAP	80	96	3
TAP	80	192	2
STR	80	192	3
SI_	80	192	3	96	48	7
TAP	80	288	1
TAP	80	336	0
STR	81	0	0
SI_	81	0	0	96	48	4
TAP	81	96	7
STR	81	192	4
SI_	81	192	4	96	48	0
TAP	81	192	5
TAP	81	288	7
TAP	81	336	6
STR	82	0	5
SCR	82	0	5	96	48	0
TAP	82	96	3
STR	82	144	3
SXR	82	144	3	96	48	1
TAP	82	240	4
STR	82	288	4
SXL	82	288	4	96	48	6
TAP	83	0	2
STR	83	48	2
SCL	83	48	2	96	48	7
TAP	83	144	4
STR	83	192	4
SF_	83	192	4	96	48	0
BST	84	0	2
SXL	84	0	2	96	192	1
BST	84	0	6
SXL	84	0	6	96	192	5
BST	85	0	1
SXL	85	0	1	96	192	0
BST	85	0	5
SXL	85	0	5	96	192	4
BST	86	0	0
SXL	86	0	0	96	480	3
BST	86	0	4
SXL	86	0	4	96	480	7
TAP	88	0	3
TAP	88	0	7
TAP	88	48	2
TAP	88	96	1
HLD	88	144	0	96
TAP	88	144	4
TAP	88	240	5
TAP	88	288	6
TAP	88	336	3
HLD	88	336	7	96
TAP	89	48	2
TAP	89	96	1
TAP	89	144	0
TAP	89	192	3
TAP	89	192	7
TAP	89	240	4
TAP	89	288	1
TAP	89	288	5
TAP	89	336	6
TAP	90	0	0
TAP	90	0	7
TAP	90	48	6
TAP	90	96	5
TAP	90	144	0
HLD	90	144	4	96
TAP	90	240	1
TAP	90	288	2
HLD	90	336	3	96
TAP	90	336	7
TAP	91	48	6
TAP	91	96	5
TAP	91	144	4
TAP	91	192	3
TAP	91	192	7
TAP	91	240	0
TAP	91	288	1
TAP	91	288	5
TAP	91	336	6
TAP	92	0	2
TAP	92	0	7
TAP	92	48	1
TAP	92	96	0
TAP	92	144	3
HLD	92	144	7	96
TAP	92	240	4
TAP	92	288	5
TAP	92	336	2
HLD	92	336	6	96
TAP	93	48	1
TAP	93	96	0
TAP	93	144	7
TAP	93	192	1
TAP	93	192	5
TAP	93	240	4
TAP	93	288	3
TAP	93	288	7
TAP	93	336	2
TAP	94	0	1
TAP	94	0	5
TAP	94	48	6
TAP	94	96	7
HLD	94	144	0	96
TAP	94	144	4
TAP	94	240	3
TAP	94	288	2
HLD	94	336	1	96
TAP	94	336	5
TAP	95	48	5
TAP	95	96	2
TAP	95	96	6
TAP	95	144	3
TAP	95	144	7
BST	95	240	0
SI_	95	240	0	96	336	3
BST	95	240	3
SCR	95	240	3	96	336	5

T_REC_TAP	363
T_REC_BRK	5
T_REC_XTP	0
T_REC_HLD	44
T_REC_XHO	0
T_REC_STR	141
T_REC_BST	8
T_REC_XST	0
T_REC_TTP	0
T_REC_THO	0
T_REC_SLD	149
T_REC_ALL	710
T_NUM_TAP	504
T_NUM_BRK	13
T_NUM_HLD	44
T_NUM_SLD	149
T_NUM_ALL	710
T_JUDGE_TAP	517
T_JUDGE_HLD	127
T_JUDGE_SLD	149
T_JUDGE_ALL	793
TTM_EACHPAIRS	129
TTM_SCR_TAP	252000
TTM_SCR_BRK	33800
TTM_SCR_HLD	44000
TTM_SCR_SLD	223500
TTM_SCR_ALL	553300
TTM_SCR_S	535450
TTM_SCR_SS	552000
TTM_RAT_ACV	10023

