VERSION	0.00.00	1.03.00
FES_MODE	0
BPM_DEF	164.000	164.000	164.000	164.000
MET_DEF	4	4
RESOLUTION	384
CLK_DEF	384
COMPATIBLE_CODE	MA2

BPM	0	0	164.000
MET	0	0	4	4

TAP	2	0	0
TAP	2	96	3
TAP	2	96	5
TAP	2	192	7
TAP	2	288	2
TAP	2	288	4
HLD	3	0	0	288
TAP	3	96	3
TAP	3	192	4
TAP	3	288	5
TAP	4	0	7
TAP	4	96	2
TAP	4	96	4
TAP	4	192	0
TAP	4	288	3
TAP	4	288	5
HLD	5	0	7	288
TAP	5	96	4
TAP	5	192	3
TAP	5	288	2
TAP	6	0	0
TAP	6	96	4
TAP	6	96	5
TAP	6	192	7
TAP	6	288	2
TAP	6	288	3
HLD	7	0	0	288
TAP	7	96	2
TAP	7	192	4
TAP	7	288	6
TAP	8	0	7
TAP	8	96	2
TAP	8	96	3
TAP	8	192	0
TAP	8	288	4
TAP	8	288	5
TAP	9	0	3
TAP	9	0	6
TAP	9	96	2
TAP	9	96	7
TAP	9	192	0
TAP	9	192	1
BRK	9	240	0
BRK	9	240	1
HLD	10	0	1	384
TAP	10	0	4
TAP	10	96	5
TAP	10	192	6
TAP	10	288	7
STR	11	0	0
SI_	11	0	0	96	48	5
STR	11	192	1
SI_	11	192	1	96	48	4
HLD	12	0	6	240
TAP	12	96	7
TAP	12	144	7
STR	12	240	1
SCR	12	240	1	96	240	6
TAP	14	0	3
HLD	14	0	6	384
TAP	14	96	2
TAP	14	192	1
TAP	14	288	0
STR	15	0	7
SI_	15	0	7	96	48	2
STR	15	192	6
SI_	15	192	6	96	48	3
HLD	16	0	1	288
TAP	16	96	0
TAP	16	144	0
TAP	16	240	7
TAP	16	288	7
HLD	17	0	6	288
TAP	17	96	7
TAP	17	144	7
TAP	17	240	0
TAP	17	288	0
HLD	18	0	1	96
TAP	18	0	3
TAP	18	96	7
TAP	18	192	4
HLD	18	192	6	96
TAP	18	288	0
STR	19	0	1
SCR	19	0	1	96	48	4
STR	19	192	0
SCL	19	192	0	96	48	5
HLD	20	0	2	240
TAP	20	96	0
TAP	20	144	0
STR	20	240	6
SXR	20	240	6	96	240	2
TAP	22	0	4
HLD	22	0	6	96
TAP	22	96	0
HLD	22	192	1	96
TAP	22	192	3
TAP	22	288	7
STR	23	0	6
SCL	23	0	6	96	48	3
STR	23	192	7
SCR	23	192	7	96	48	2
HLD	24	0	5	240
TAP	24	96	7
TAP	24	144	7
STR	24	240	1
SSR	24	240	1	96	240	5
TAP	25	288	2
TAP	25	288	5
TAP	26	0	0
TAP	26	0	7
TAP	26	96	2
TAP	26	144	3
TAP	26	192	2
TAP	26	288	5
TAP	26	336	4
TAP	27	0	5
STR	27	96	6
SUR	27	96	6	96	96	3
STR	27	96	7
SCR	27	96	7	96	96	2
HLD	28	0	4	96
HLD	28	96	5	96
HLD	28	192	6	96
HLD	28	288	7	96
TAP	29	0	0
TAP	29	96	1
TAP	29	96	7
TAP	29	192	2
TAP	29	192	6
TAP	30	0	0
TAP	30	0	7
TAP	30	96	5
TAP	30	144	4
TAP	30	192	5
TAP	30	288	2
TAP	30	336	3
TAP	31	0	2
STR	31	96	0
SCL	31	96	0	96	96	5
STR	31	96	1
SUL	31	96	1	96	96	4
HLD	32	0	3	96
HLD	32	96	2	96
HLD	32	192	1	96
HLD	32	288	0	96
TAP	33	0	7
TAP	33	96	0
TAP	33	96	6
TAP	33	192	1
TAP	33	192	5
TAP	33	288	2
TAP	33	288	4
TAP	34	0	3
TAP	34	48	4
TAP	34	96	2
TAP	34	144	5
TAP	34	192	1
TAP	34	240	6
STR	34	288	0
SCR	34	288	0	96	240	7
TAP	34	336	7
BST	36	0	1
SI_	36	0	1	96	48	4
TAP	36	96	7
STR	36	192	6
SI_	36	192	6	96	48	3
TAP	36	288	0
HLD	36	336	0	336
TAP	37	96	2
TAP	37	192	4
TAP	37	288	6
STR	38	0	1
SI_	38	0	1	96	48	4
TAP	38	0	7
TAP	38	96	7
TAP	38	192	0
STR	38	192	6
SI_	38	192	6	96	48	3
TAP	38	288	0
STR	39	0	1
SCR	39	0	1	96	48	4
TAP	39	0	7
TAP	39	96	7
TAP	39	192	0
STR	39	192	6
SCL	39	192	6	96	48	3
TAP	39	288	0
HLD	40	0	1	96
HLD	40	96	2	96
TAP	40	192	3
TAP	40	288	0
TAP	40	288	7
HLD	41	0	6	96
HLD	41	96	5	96
TAP	41	192	4
TAP	41	288	0
TAP	41	288	7
TAP	42	0	1
TAP	42	0	3
TAP	42	96	4
STR	42	96	6
SCL	42	96	6	96	144	1
TAP	43	0	0
TAP	43	0	7
TAP	43	48	0
TAP	43	48	7
TAP	43	144	1
TAP	43	144	6
BRK	43	240	2
BRK	43	240	5
STR	44	0	6
SI_	44	0	6	96	48	3
TAP	44	96	0
STR	44	192	1
SI_	44	192	1	96	48	4
TAP	44	288	7
HLD	44	336	7	336
TAP	45	96	5
TAP	45	192	3
TAP	45	288	1
TAP	46	0	0
STR	46	0	6
SI_	46	0	6	96	48	3
TAP	46	96	0
STR	46	192	1
SI_	46	192	1	96	48	4
TAP	46	192	7
TAP	46	288	7
TAP	47	0	0
STR	47	0	6
SCL	47	0	6	96	48	3
TAP	47	96	0
STR	47	192	1
SCR	47	192	1	96	48	4
TAP	47	192	7
TAP	47	288	7
HLD	48	0	6	96
STR	48	96	5
SLR	48	96	5	96	144	3
HLD	49	0	1	96
STR	49	96	2
SLL	49	96	2	96	144	4
TAP	50	0	0
TAP	50	96	1
TAP	50	96	7
TAP	50	144	1
TAP	50	144	7
TAP	50	240	0
TAP	50	240	6
TAP	50	288	0
TAP	50	288	6
TAP	51	0	2
TAP	51	0	7
TAP	51	48	2
TAP	51	48	7
TAP	51	144	0
TAP	51	144	5
TAP	51	192	0
TAP	51	192	5
BRK	51	288	0
BRK	51	288	7
TAP	52	0	2
TAP	52	48	4
TAP	52	96	3
TAP	52	144	4
STR	52	192	1
SCL	52	192	1	96	96	6
TAP	53	0	5
TAP	53	48	3
TAP	53	96	4
TAP	53	144	3
STR	53	192	6
SCR	53	192	6	96	96	1
TAP	54	0	2
TAP	54	96	1
TAP	54	96	3
STR	54	192	0
SI_	54	192	0	96	48	4
TAP	54	192	4
TAP	55	0	5
TAP	55	96	4
TAP	55	96	6
TAP	55	192	3
STR	55	192	7
SI_	55	192	7	96	48	3
TAP	56	0	1
STR	56	96	0
SSL	56	96	0	96	144	4
TAP	56	96	4
TAP	57	0	6
TAP	57	96	3
STR	57	96	7
SSR	57	96	7	96	144	3
TAP	58	0	1
TAP	58	48	0
TAP	58	96	2
TAP	58	192	6
TAP	58	240	7
TAP	58	288	5
TAP	59	0	3
TAP	59	0	4
TAP	59	48	3
TAP	59	48	4
TAP	59	144	2
TAP	59	144	5
BRK	59	240	1
BRK	59	240	6
TAP	60	0	2
TAP	60	48	3
TAP	60	96	2
TAP	60	144	4
STR	60	192	2
SCL	60	192	2	96	96	7
TAP	61	0	5
TAP	61	48	4
TAP	61	96	5
TAP	61	144	3
STR	61	192	5
SCR	61	192	5	96	96	0
TAP	62	0	3
TAP	62	96	3
TAP	62	96	5
TAP	62	192	4
TAP	62	288	2
TAP	62	288	4
STR	63	0	3
SUL	63	0	3	96	144	6
SUR	63	0	3	96	144	0
TAP	64	0	2
TAP	64	96	1
TAP	64	96	3
TAP	64	192	0
TAP	64	288	1
TAP	64	288	7
TAP	65	0	5
TAP	65	96	4
TAP	65	96	6
TAP	65	192	7
TAP	65	288	0
TAP	65	288	6
TAP	66	0	1
TAP	66	96	0
TAP	66	96	6
TAP	66	144	0
TAP	66	144	6
TAP	66	240	1
TAP	66	240	7
TAP	66	288	1
TAP	66	288	7
TAP	67	0	0
TAP	67	0	5
TAP	67	48	0
TAP	67	48	5
TAP	67	144	2
TAP	67	144	7
TAP	67	192	2
TAP	67	192	7
BRK	67	288	0
BRK	67	288	7
STR	68	0	6
SCL	68	0	6	96	192	0
TAP	68	0	7
TAP	69	0	7
TAP	69	96	0
TAP	69	96	6
TAP	69	192	1
TAP	69	192	5
TAP	69	288	2
TAP	69	288	4
HLD	70	0	3	96
TAP	70	96	2
HLD	70	192	4	96
TAP	70	288	5
HLD	71	0	0	96
TAP	71	96	1
HLD	71	192	7	96
TAP	71	288	6
TAP	72	0	1
TAP	72	48	7
TAP	72	96	0
STR	72	192	1
SCR	72	192	1	96	48	4
TAP	72	192	7
TAP	73	0	6
TAP	73	48	0
TAP	73	96	7
TAP	73	192	0
STR	73	192	6
SCL	73	192	6	96	48	3
TAP	74	0	2
TAP	74	96	1
TAP	74	96	3
TAP	74	192	5
TAP	74	288	4
TAP	74	288	6
TAP	75	0	4
TAP	75	0	5
TAP	75	48	4
TAP	75	48	5
TAP	75	144	3
TAP	75	144	6
BRK	75	240	2
BRK	75	240	7
TAP	76	0	0
STR	76	0	1
SCR	76	0	1	96	192	0
HLD	77	0	1	384
TAP	77	96	2
TAP	77	192	3
TAP	77	288	4
HLD	78	0	5	384
TAP	78	96	6
TAP	78	192	7
TAP	78	288	0
STR	79	0	1
SCL	79	0	1	96	192	2
HLD	80	0	1	96
STR	80	96	7
SI_	80	96	7	96	96	2
SI_	80	96	7	96	96	4
HLD	81	0	6	96
STR	81	96	0
SI_	81	96	0	96	96	3
SI_	81	96	0	96	96	5
TAP	82	0	4
TAP	82	96	3
TAP	82	96	5
TAP	82	144	3
TAP	82	144	5
TAP	82	240	2
TAP	82	240	4
TAP	82	288	2
TAP	82	288	4
TAP	83	0	3
TAP	83	0	6
TAP	83	48	3
TAP	83	48	6
TAP	83	144	1
TAP	83	144	4
TAP	83	192	1
TAP	83	192	4
BRK	83	288	0
BRK	83	288	7
STR	84	0	3
SCL	84	0	3	96	192	4
TAP	84	0	4
TAP	85	0	3
STR	85	0	4
SCR	85	0	4	96	192	3
STR	86	0	3
SCL	86	0	3	96	480	4
STR	86	0	4
SCR	86	0	4	96	480	3
TAP	88	0	1
TAP	88	48	0
TAP	88	96	7
HLD	88	144	6	96
TAP	88	240	4
HLD	88	336	1	96
TAP	89	48	3
HLD	89	144	6	96
TAP	89	240	4
TAP	89	288	4
TAP	90	0	6
TAP	90	48	7
TAP	90	96	0
HLD	90	144	1	96
TAP	90	240	2
HLD	90	336	6	96
TAP	91	48	5
TAP	91	96	5
TAP	91	192	6
TAP	91	192	7
TAP	91	288	0
TAP	91	288	1
TAP	92	0	2
TAP	92	48	3
TAP	92	96	4
HLD	92	144	5	96
TAP	92	240	7
HLD	92	336	2	96
TAP	93	48	0
HLD	93	144	5	96
TAP	93	240	7
TAP	93	288	7
TAP	94	0	5
TAP	94	48	4
TAP	94	96	3
HLD	94	144	2	96
TAP	94	240	1
HLD	94	336	5	96
TAP	95	48	6
TAP	95	96	6
TAP	95	192	3
BST	95	240	3
SI_	95	240	3	96	336	0
SCR	95	240	3	96	336	5

T_REC_TAP	328
T_REC_BRK	14
T_REC_XTP	0
T_REC_HLD	48
T_REC_XHO	0
T_REC_STR	50
T_REC_BST	2
T_REC_XST	0
T_REC_TTP	0
T_REC_THO	0
T_REC_SLD	56
T_REC_ALL	498
T_NUM_TAP	378
T_NUM_BRK	16
T_NUM_HLD	48
T_NUM_SLD	56
T_NUM_ALL	498
T_JUDGE_TAP	394
T_JUDGE_HLD	159
T_JUDGE_SLD	56
T_JUDGE_ALL	609
TTM_EACHPAIRS	105
TTM_SCR_TAP	189000
TTM_SCR_BRK	41600
TTM_SCR_HLD	48000
TTM_SCR_SLD	84000
TTM_SCR_ALL	362600
TTM_SCR_S	350200
TTM_SCR_SS	361000
TTM_RAT_ACV	10044

