VERSION	0.00.00	1.03.00
FES_MODE	0
BPM_DEF	164.000	164.000	164.000	164.000
MET_DEF	4	4
RESOLUTION	384
CLK_DEF	384
COMPATIBLE_CODE	MA2

BPM	0	0	164.000
MET	0	0	4	4

STR	2	0	1
SCR	2	0	1	96	288	5
TAP	3	192	7
TAP	3	288	7
STR	4	0	6
SCL	4	0	6	96	288	2
TAP	5	192	3
TAP	5	288	3
STR	6	0	2
SCL	6	0	2	96	288	6
TAP	7	192	4
TAP	7	288	4
STR	8	0	5
SCR	8	0	5	96	288	1
TAP	10	0	3
TAP	10	96	2
TAP	10	192	0
TAP	10	192	1
TAP	11	0	4
TAP	11	96	5
TAP	11	192	6
TAP	11	192	7
TAP	12	0	3
TAP	12	96	2
TAP	12	192	1
TAP	12	288	0
TAP	13	0	6
TAP	13	96	7
TAP	13	192	0
TAP	13	192	7
TAP	14	0	0
TAP	14	96	1
TAP	14	192	2
TAP	14	192	3
TAP	15	0	7
TAP	15	96	6
TAP	15	192	4
TAP	15	192	5
TAP	16	0	0
TAP	16	96	1
TAP	16	192	2
TAP	16	288	3
TAP	17	0	5
TAP	17	96	4
TAP	17	192	3
TAP	17	192	4
TAP	18	0	1
TAP	18	96	0
TAP	18	192	0
TAP	18	192	1
TAP	19	0	6
TAP	19	96	7
TAP	19	192	6
TAP	19	192	7
TAP	20	0	2
TAP	20	96	3
TAP	20	192	2
TAP	20	192	3
TAP	21	0	5
TAP	21	96	4
TAP	21	192	4
TAP	21	192	5
TAP	22	0	1
TAP	22	96	0
TAP	22	192	1
TAP	22	288	2
TAP	22	288	7
TAP	23	0	6
TAP	23	96	7
TAP	23	192	6
TAP	23	288	0
TAP	23	288	5
TAP	24	0	4
TAP	24	0	5
TAP	24	96	4
TAP	24	96	5
TAP	24	192	2
TAP	24	192	3
TAP	24	288	2
TAP	24	288	3
TAP	25	0	2
TAP	25	0	5
HLD	26	0	6	192
TAP	26	192	7
HLD	27	0	1	192
TAP	27	192	0
HLD	28	0	5	192
TAP	28	192	4
HLD	29	0	2	192
TAP	29	192	3
HLD	30	0	6	192
TAP	30	192	5
HLD	31	0	1	192
TAP	31	192	2
HLD	32	0	5	192
TAP	32	192	6
HLD	33	0	2	192
STR	33	192	1
SCR	33	192	1	96	768	0
TAP	36	0	1
TAP	36	96	0
TAP	36	192	1
TAP	36	288	0
TAP	36	288	1
TAP	37	0	2
TAP	37	0	7
TAP	37	192	7
TAP	37	288	7
TAP	38	0	6
TAP	38	96	7
TAP	38	192	6
TAP	38	288	7
TAP	39	0	6
TAP	39	0	7
TAP	39	96	0
TAP	39	96	5
TAP	39	192	1
TAP	39	192	4
TAP	40	0	2
TAP	40	96	3
TAP	40	192	2
TAP	40	288	2
TAP	40	288	3
TAP	41	0	5
TAP	41	96	4
TAP	41	192	5
TAP	41	288	4
TAP	41	288	5
TAP	42	0	3
TAP	42	96	4
TAP	42	192	3
TAP	42	192	4
TAP	42	288	2
TAP	42	288	5
TAP	43	0	1
TAP	43	0	6
TAP	43	96	1
TAP	43	96	6
BRK	43	192	0
BRK	43	192	7
TAP	44	0	2
TAP	44	96	3
TAP	44	192	2
TAP	44	288	2
TAP	44	288	3
TAP	45	0	1
TAP	45	0	4
TAP	45	192	4
TAP	45	288	4
TAP	46	0	5
TAP	46	96	4
TAP	46	192	5
TAP	46	288	4
TAP	47	0	4
TAP	47	0	5
TAP	47	96	3
TAP	47	96	6
TAP	47	192	2
TAP	47	192	7
TAP	48	0	1
TAP	48	96	0
TAP	48	192	1
TAP	48	288	0
TAP	48	288	1
TAP	49	0	6
TAP	49	96	7
TAP	49	192	6
TAP	49	288	6
TAP	49	288	7
STR	50	0	0
SCR	50	0	0	96	480	7
TAP	52	0	1
TAP	52	96	0
TAP	52	192	1
TAP	52	288	2
TAP	52	288	7
TAP	53	0	6
TAP	53	96	7
TAP	53	192	0
TAP	53	192	5
TAP	54	0	6
TAP	54	96	7
TAP	54	192	6
TAP	54	288	0
TAP	54	288	5
TAP	55	0	1
TAP	55	96	0
TAP	55	192	2
TAP	55	192	7
TAP	56	0	2
TAP	56	96	3
TAP	56	192	2
TAP	56	288	1
TAP	56	288	4
TAP	57	0	5
TAP	57	96	4
TAP	57	192	3
TAP	57	192	6
TAP	58	0	5
TAP	58	96	4
TAP	58	192	5
TAP	58	288	3
TAP	58	288	6
TAP	59	0	2
TAP	59	0	7
TAP	59	96	0
TAP	59	96	1
BRK	59	192	2
BRK	59	192	7
TAP	60	0	1
TAP	60	96	0
TAP	60	192	2
TAP	60	192	7
TAP	60	288	3
TAP	60	288	6
TAP	61	0	6
TAP	61	96	7
TAP	61	192	0
TAP	61	192	5
TAP	61	288	1
TAP	61	288	4
TAP	62	0	1
TAP	62	96	0
TAP	62	192	6
TAP	62	288	7
TAP	63	0	0
TAP	63	0	7
TAP	63	96	0
TAP	63	96	7
TAP	63	192	1
TAP	63	192	6
TAP	64	0	0
TAP	64	96	0
TAP	64	96	1
TAP	64	192	2
TAP	64	192	7
TAP	64	288	3
TAP	64	288	6
TAP	65	0	7
TAP	65	96	6
TAP	65	96	7
TAP	65	192	0
TAP	65	192	5
TAP	65	288	1
TAP	65	288	4
TAP	66	0	2
TAP	66	0	3
TAP	67	0	3
TAP	67	96	4
BRK	67	192	3
BRK	67	192	4
TAP	68	0	1
TAP	68	96	0
TAP	68	192	1
TAP	68	288	0
TAP	69	0	6
TAP	69	96	7
TAP	69	192	6
TAP	69	288	7
TAP	70	0	2
TAP	70	96	3
TAP	70	192	2
TAP	70	288	3
TAP	71	0	5
TAP	71	96	4
TAP	71	192	3
TAP	71	192	6
TAP	72	0	1
TAP	72	96	0
TAP	72	192	0
TAP	72	192	1
TAP	72	288	2
TAP	72	288	7
TAP	73	0	6
TAP	73	96	7
TAP	73	192	6
TAP	73	192	7
TAP	73	288	0
TAP	73	288	5
TAP	74	0	2
TAP	74	96	3
TAP	74	192	5
TAP	74	288	4
TAP	75	0	3
TAP	75	0	4
TAP	75	96	2
TAP	75	96	5
BRK	75	192	1
BRK	75	192	6
TAP	76	0	1
TAP	76	96	0
TAP	76	96	1
TAP	76	192	1
TAP	76	288	0
TAP	76	288	1
TAP	77	0	6
TAP	77	96	6
TAP	77	96	7
TAP	77	192	6
TAP	77	288	6
TAP	77	288	7
TAP	78	0	2
TAP	78	96	2
TAP	78	96	3
TAP	78	192	2
TAP	78	288	2
TAP	78	288	3
TAP	79	0	5
TAP	79	96	4
TAP	79	96	5
TAP	79	192	3
TAP	79	192	6
TAP	80	0	0
TAP	80	96	1
TAP	80	192	0
TAP	80	192	1
TAP	81	0	6
TAP	81	96	7
TAP	81	192	6
TAP	81	192	7
TAP	82	0	2
TAP	82	96	3
TAP	82	192	2
TAP	82	192	3
TAP	83	0	5
TAP	83	96	4
TAP	83	192	4
TAP	83	192	5
HLD	84	0	1	192
TAP	84	96	0
TAP	84	192	0
HLD	85	0	6	192
TAP	85	96	7
TAP	85	192	7
STR	86	0	2
SUR	86	0	2	96	480	5
TAP	88	0	1
TAP	88	96	0
TAP	88	96	1
TAP	88	192	2
TAP	88	192	7
TAP	89	0	6
TAP	89	96	6
TAP	89	96	7
TAP	89	192	0
TAP	89	192	5
TAP	90	0	2
TAP	90	96	2
TAP	90	96	3
TAP	90	192	1
TAP	90	192	4
TAP	91	0	5
TAP	91	96	4
TAP	91	96	5
TAP	91	192	3
TAP	91	192	6
TAP	92	0	1
TAP	92	96	0
TAP	92	96	1
TAP	92	192	6
TAP	92	288	6
TAP	92	288	7
TAP	93	0	0
TAP	93	0	7
TAP	93	96	0
TAP	93	96	7
TAP	93	192	1
TAP	93	192	6
TAP	94	0	2
TAP	94	96	3
TAP	94	192	5
TAP	94	288	4
TAP	95	0	3
TAP	95	0	4
TAP	95	96	3
TAP	95	96	4
TAP	95	192	2
TAP	95	192	5

T_REC_TAP	346
T_REC_BRK	8
T_REC_XTP	0
T_REC_HLD	10
T_REC_XHO	0
T_REC_STR	7
T_REC_BST	0
T_REC_XST	0
T_REC_TTP	0
T_REC_THO	0
T_REC_SLD	7
T_REC_ALL	378
T_NUM_TAP	353
T_NUM_BRK	8
T_NUM_HLD	10
T_NUM_SLD	7
T_NUM_ALL	378
T_JUDGE_TAP	361
T_JUDGE_HLD	40
T_JUDGE_SLD	7
T_JUDGE_ALL	408
TTM_EACHPAIRS	97
TTM_SCR_TAP	176500
TTM_SCR_BRK	20800
TTM_SCR_HLD	10000
TTM_SCR_SLD	10500
TTM_SCR_ALL	217800
TTM_SCR_S	210500
TTM_SCR_SS	217000
TTM_RAT_ACV	10036

