VERSION	0.00.00	1.03.00
FES_MODE	0
BPM_DEF	164.000	164.000	164.000	164.000
MET_DEF	4	4
RESOLUTION	384
CLK_DEF	384
COMPATIBLE_CODE	MA2

BPM	0	0	164.000
MET	0	0	4	4

STR	2	0	0
SI_	2	0	0	96	288	4
STR	4	0	7
SI_	4	0	7	96	288	3
STR	6	0	1
SI_	6	0	1	96	288	4
STR	8	0	6
SI_	8	0	6	96	288	3
HLD	10	0	0	384
TAP	11	192	0
TAP	12	0	1
TAP	12	192	1
TAP	13	0	2
TAP	13	192	2
HLD	14	0	3	384
TAP	15	192	3
TAP	16	0	4
TAP	16	192	4
TAP	17	0	4
TAP	17	0	5
TAP	17	192	4
TAP	17	192	5
HLD	18	0	6	384
TAP	19	192	6
TAP	20	0	7
TAP	20	192	7
TAP	21	0	0
TAP	21	192	0
HLD	22	0	1	384
TAP	23	192	1
TAP	24	0	2
TAP	24	192	2
BRK	25	0	3
BRK	25	0	4
TAP	26	0	3
TAP	26	96	3
TAP	26	192	2
TAP	26	288	2
TAP	27	0	1
TAP	27	96	1
TAP	27	192	0
TAP	27	192	7
TAP	28	0	4
TAP	28	96	4
TAP	28	192	5
TAP	28	288	5
TAP	29	0	6
TAP	29	96	6
TAP	29	192	0
TAP	29	192	7
TAP	30	0	0
TAP	30	96	0
TAP	30	192	1
TAP	30	288	1
TAP	31	0	2
TAP	31	96	2
TAP	31	192	3
TAP	31	192	4
TAP	32	0	7
TAP	32	96	7
TAP	32	192	6
TAP	32	288	6
TAP	33	0	5
TAP	33	96	5
HLD	33	192	3	768
HLD	33	192	4	768
TAP	36	0	3
TAP	36	96	3
TAP	36	192	2
TAP	36	192	3
TAP	37	0	4
TAP	37	96	4
TAP	37	192	4
TAP	37	192	5
TAP	38	0	2
TAP	38	96	3
TAP	38	192	2
TAP	38	192	3
TAP	39	0	5
TAP	39	96	4
TAP	39	192	4
TAP	39	192	5
TAP	40	0	1
TAP	40	96	1
TAP	40	192	2
TAP	40	288	2
TAP	41	0	3
TAP	41	96	3
TAP	41	192	3
TAP	41	192	4
TAP	42	0	6
TAP	42	96	6
TAP	42	192	5
TAP	42	288	5
HLD	43	0	3	192
HLD	43	0	4	192
TAP	44	0	3
TAP	44	96	2
TAP	44	192	2
TAP	44	192	3
TAP	45	0	4
TAP	45	96	5
TAP	45	192	4
TAP	45	192	5
TAP	46	0	3
TAP	46	96	2
TAP	46	192	0
TAP	46	192	1
TAP	47	0	4
TAP	47	96	5
TAP	47	192	6
TAP	47	192	7
HLD	48	0	0	192
HLD	49	0	7	192
HLD	50	0	1	384
HLD	50	0	6	384
TAP	52	0	0
TAP	52	96	0
TAP	52	192	1
TAP	52	192	7
TAP	53	0	7
TAP	53	96	7
TAP	53	192	0
TAP	53	192	6
TAP	54	0	1
TAP	54	96	1
TAP	54	192	0
TAP	54	192	2
TAP	55	0	6
TAP	55	96	6
TAP	55	192	5
TAP	55	192	7
TAP	56	0	0
TAP	56	96	0
TAP	56	192	1
TAP	56	288	1
TAP	57	0	2
TAP	57	96	2
TAP	57	192	3
TAP	57	192	4
TAP	58	0	4
TAP	58	96	4
TAP	58	192	5
TAP	58	288	5
HLD	59	0	6	192
HLD	59	0	7	192
TAP	60	0	7
TAP	60	96	7
TAP	60	192	0
TAP	60	192	6
TAP	61	0	0
TAP	61	96	0
TAP	61	192	1
TAP	61	192	7
TAP	62	0	6
TAP	62	96	6
TAP	62	192	5
TAP	62	192	7
TAP	63	0	1
TAP	63	96	1
TAP	63	192	0
TAP	63	192	2
TAP	64	0	7
TAP	64	96	7
TAP	64	192	6
TAP	64	288	6
TAP	65	0	5
TAP	65	96	5
TAP	65	192	3
TAP	65	192	4
HLD	66	0	2	576
HLD	66	0	5	576
TAP	68	0	4
TAP	68	96	4
TAP	68	192	5
TAP	68	288	5
TAP	69	0	6
TAP	69	96	6
TAP	69	192	6
TAP	69	192	7
TAP	70	0	0
TAP	70	96	0
TAP	70	192	1
TAP	70	288	1
TAP	71	0	2
TAP	71	96	2
TAP	71	192	2
TAP	71	192	3
STR	72	0	4
SI_	72	0	4	96	288	0
STR	74	0	3
SI_	74	0	3	96	288	7
TAP	76	0	3
TAP	76	96	3
TAP	76	192	2
TAP	76	288	2
TAP	77	0	1
TAP	77	96	1
TAP	77	192	0
TAP	77	192	1
TAP	78	0	7
TAP	78	96	7
TAP	78	192	6
TAP	78	288	6
TAP	79	0	5
TAP	79	96	5
TAP	79	192	4
TAP	79	192	5
STR	80	0	3
SI_	80	0	3	96	288	7
STR	82	0	4
SI_	82	0	4	96	288	0
TAP	84	0	0
TAP	84	0	1
TAP	85	0	6
TAP	85	0	7
HLD	86	0	0	576
HLD	86	0	7	576
TAP	88	0	0
TAP	88	0	1
TAP	88	192	0
TAP	88	192	1
TAP	89	0	2
TAP	89	0	3
BRK	89	192	2
BRK	89	192	3
TAP	90	0	4
TAP	90	0	5
TAP	90	192	4
TAP	90	192	5
TAP	91	0	6
TAP	91	0	7
BRK	91	192	6
BRK	91	192	7
STR	92	0	7
SI_	92	0	7	96	288	3
STR	94	0	0
SI_	94	0	0	96	288	4

T_REC_TAP	194
T_REC_BRK	6
T_REC_XTP	0
T_REC_HLD	18
T_REC_XHO	0
T_REC_STR	10
T_REC_BST	0
T_REC_XST	0
T_REC_TTP	0
T_REC_THO	0
T_REC_SLD	10
T_REC_ALL	238
T_NUM_TAP	204
T_NUM_BRK	6
T_NUM_HLD	18
T_NUM_SLD	10
T_NUM_ALL	238
T_JUDGE_TAP	210
T_JUDGE_HLD	152
T_JUDGE_SLD	10
T_JUDGE_ALL	372
TTM_EACHPAIRS	45
TTM_SCR_TAP	102000
TTM_SCR_BRK	15600
TTM_SCR_HLD	18000
TTM_SCR_SLD	15000
TTM_SCR_ALL	150600
TTM_SCR_S	145500
TTM_SCR_SS	150000
TTM_RAT_ACV	10040

