VERSION	0.00.00	1.03.00
FES_MODE	0
BPM_DEF	143.000	143.000	143.000	143.000
MET_DEF	4	4
RESOLUTION	384
CLK_DEF	384
COMPATIBLE_CODE	MA2

BPM	0	0	143.000
MET	0	0	4	4

HLD	1	0	2	72
HLD	1	72	3	72
STR	1	144	4
SXR	1	144	4	96	144	1
HLD	2	0	5	72
HLD	2	72	4	72
STR	2	144	3
SXL	2	144	3	96	144	6
HLD	3	0	2	72
HLD	3	72	3	72
STR	3	144	4
SXR	3	144	4	96	144	1
HLD	4	0	5	72
HLD	4	72	4	72
TAP	4	144	3
STR	4	192	3
SI_	4	192	3	96	48	0
SI_	4	192	3	96	48	6
BRK	4	288	3
STR	5	0	7
SI_	5	0	7	96	48	2
SI_	5	0	7	96	48	4
TAP	5	96	7
HLD	5	192	3	72
TAP	5	264	2
TAP	5	336	1
TAP	5	336	4
STR	6	0	0
SI_	6	0	0	96	48	3
SI_	6	0	0	96	48	5
TAP	6	96	0
HLD	6	192	4	72
TAP	6	264	5
TAP	6	336	3
TAP	6	336	6
STR	7	0	5
SI_	7	0	5	96	48	0
TAP	7	48	5
STR	7	96	2
SI_	7	96	2	96	48	7
TAP	7	144	2
TAP	7	192	4
TAP	7	240	4
TAP	7	288	3
TAP	7	300	2
TAP	7	312	1
TAP	7	324	0
TAP	7	336	7
TAP	7	348	6
TAP	7	360	5
TAP	7	372	4
BRK	8	0	3
BRK	8	0	7
STR	8	192	3
SI_	8	192	3	96	48	7
STR	8	192	4
SI_	8	192	4	96	48	0
BRK	8	288	3
BRK	8	288	4
TAP	9	0	0
STR	9	0	5
SI_	9	0	5	96	48	0
STR	9	96	1
SI_	9	96	1	96	48	4
TAP	9	96	5
TAP	9	192	1
STR	9	192	6
SI_	9	192	6	96	48	1
SI_	9	192	6	96	48	3
TAP	9	288	6
STR	10	0	2
SI_	10	0	2	96	48	7
TAP	10	0	7
TAP	10	96	2
STR	10	96	6
SI_	10	96	6	96	48	3
STR	10	192	1
SI_	10	192	1	96	48	4
SI_	10	192	1	96	48	6
TAP	10	192	6
TAP	10	288	1
TAP	11	0	0
STR	11	0	5
SI_	11	0	5	96	48	0
STR	11	96	1
SI_	11	96	1	96	48	4
TAP	11	96	5
TAP	11	192	1
STR	11	192	6
SI_	11	192	6	96	48	1
SI_	11	192	6	96	48	3
TAP	11	288	6
STR	12	0	2
SI_	12	0	2	96	48	7
TAP	12	0	7
TAP	12	96	2
STR	12	96	6
SI_	12	96	6	96	48	3
STR	12	192	1
SI_	12	192	1	96	48	4
SI_	12	192	1	96	48	6
TAP	12	192	6
TAP	12	288	1
TAP	13	0	3
STR	13	0	6
SI_	13	0	6	96	48	3
TAP	13	96	6
STR	13	96	7
SI_	13	96	7	96	48	2
STR	13	192	3
SI_	13	192	3	96	48	0
SI_	13	192	3	96	48	6
TAP	13	192	7
TAP	13	288	3
STR	14	0	1
SI_	14	0	1	96	48	4
TAP	14	0	4
STR	14	96	0
SI_	14	96	0	96	48	5
TAP	14	96	1
TAP	14	192	0
STR	14	192	4
SI_	14	192	4	96	48	1
SI_	14	192	4	96	48	7
TAP	14	288	4
TAP	15	0	3
STR	15	0	6
SI_	15	0	6	96	48	3
TAP	15	96	6
STR	15	96	7
SI_	15	96	7	96	48	2
STR	15	192	3
SI_	15	192	3	96	48	0
SI_	15	192	3	96	48	6
TAP	15	192	7
TAP	15	288	3
STR	16	0	1
SI_	16	0	1	96	48	4
TAP	16	48	1
STR	16	96	6
SI_	16	96	6	96	48	3
TAP	16	144	6
STR	16	192	0
SI_	16	192	0	96	48	4
TAP	16	240	0
BRK	16	288	7
STR	17	0	4
SI_	17	0	4	96	48	0
SI_	17	0	4	96	48	6
TAP	17	0	6
TAP	17	96	4
TAP	17	192	1
STR	17	192	3
SI_	17	192	3	96	48	1
SI_	17	192	3	96	48	7
TAP	17	288	3
STR	18	0	4
SI_	18	0	4	96	48	0
SI_	18	0	4	96	48	6
TAP	18	0	6
TAP	18	96	4
TAP	18	192	1
STR	18	192	3
SI_	18	192	3	96	48	1
SI_	18	192	3	96	48	7
TAP	18	288	3
STR	19	0	4
SI_	19	0	4	96	48	0
SI_	19	0	4	96	48	6
TAP	19	0	6
TAP	19	48	3
TAP	19	96	4
TAP	19	192	1
STR	19	192	3
SI_	19	192	3	96	48	1
SI_	19	192	3	96	48	7
TAP	19	240	4
TAP	19	288	3
STR	20	0	4
SI_	20	0	4	96	48	0
SI_	20	0	4	96	48	6
TAP	20	0	6
TAP	20	48	3
TAP	20	96	4
TAP	20	192	1
STR	20	192	3
SI_	20	192	3	96	48	1
SI_	20	192	3	96	48	7
TAP	20	240	4
TAP	20	288	3
TAP	21	0	1
STR	21	0	4
SI_	21	0	4	96	48	1
SI_	21	0	4	96	48	7
TAP	21	96	4
STR	21	192	3
SI_	21	192	3	96	48	0
SI_	21	192	3	96	48	6
TAP	21	192	6
TAP	21	288	3
TAP	22	0	1
STR	22	0	4
SI_	22	0	4	96	48	1
SI_	22	0	4	96	48	7
TAP	22	96	4
STR	22	192	3
SI_	22	192	3	96	48	0
SI_	22	192	3	96	48	6
TAP	22	192	6
TAP	22	288	3
TAP	23	0	1
STR	23	0	4
SI_	23	0	4	96	48	1
TAP	23	48	3
TAP	23	96	4
TAP	23	96	5
TAP	23	144	7
STR	23	192	3
SI_	23	192	3	96	48	6
TAP	23	192	6
TAP	23	240	4
TAP	23	288	2
TAP	23	288	3
TAP	23	336	0
TAP	24	0	0
TAP	24	24	7
TAP	24	48	1
TAP	24	72	6
TAP	24	96	2
TAP	24	120	5
TAP	24	144	3
TAP	24	168	4
TAP	24	192	3
TAP	24	204	2
TAP	24	216	1
TAP	24	228	0
TAP	24	240	7
TAP	24	252	6
TAP	24	264	5
TAP	24	276	4
BRK	24	288	3
BRK	24	288	7
STR	25	0	0
SCR	25	0	0	96	48	3
STR	25	0	5
SCR	25	0	5	96	48	0
STR	25	96	0
SI_	25	96	0	96	48	4
TAP	25	96	5
TAP	25	192	0
STR	25	192	3
SI_	25	192	3	96	48	0
SI_	25	192	3	96	48	6
TAP	25	288	3
STR	26	0	2
SCL	26	0	2	96	48	7
STR	26	0	7
SCL	26	0	7	96	48	4
TAP	26	96	2
STR	26	96	7
SI_	26	96	7	96	48	3
STR	26	192	4
SI_	26	192	4	96	48	1
SI_	26	192	4	96	48	7
TAP	26	192	7
TAP	26	288	4
STR	27	0	0
SCR	27	0	0	96	48	3
STR	27	0	5
SCR	27	0	5	96	48	0
STR	27	96	0
SI_	27	96	0	96	48	4
TAP	27	96	5
TAP	27	192	0
STR	27	192	3
SI_	27	192	3	96	48	7
TAP	27	288	3
TAP	27	336	5
TAP	28	0	4
STR	28	48	2
SCL	28	48	2	96	96	5
TAP	28	96	3
TAP	28	144	4
TAP	28	288	3
TAP	28	288	7
TAP	29	0	3
STR	29	0	4
SLR	29	0	4	96	48	0
STR	29	96	1
SV_	29	96	1	96	48	3
STR	29	192	4
SCR	29	192	4	96	48	0
TAP	29	288	2
STR	30	0	3
SLL	30	0	3	96	48	7
STR	30	96	6
SV_	30	96	6	96	48	4
STR	30	192	3
SCL	30	192	3	96	48	7
TAP	30	288	5
TAP	30	336	6
TAP	31	0	7
TAP	31	48	1
TAP	31	96	0
STR	31	144	1
SCR	31	144	1	96	96	5
TAP	31	144	6
STR	31	240	5
SCR	31	240	5	96	96	1
STR	31	336	1
SCR	31	336	1	96	192	1
BRK	32	288	3
BRK	32	288	7
STR	33	0	2
SCL	33	0	2	96	48	7
STR	33	0	7
SCL	33	0	7	96	48	4
TAP	33	96	2
STR	33	96	7
SI_	33	96	7	96	48	3
STR	33	192	4
SI_	33	192	4	96	48	1
SI_	33	192	4	96	48	7
TAP	33	192	7
TAP	33	288	4
STR	34	0	0
SCR	34	0	0	96	48	3
STR	34	0	5
SCR	34	0	5	96	48	0
STR	34	96	0
SI_	34	96	0	96	48	4
TAP	34	96	5
TAP	34	192	0
STR	34	192	3
SI_	34	192	3	96	48	0
SI_	34	192	3	96	48	6
TAP	34	288	3
STR	35	0	2
SCL	35	0	2	96	48	7
STR	35	0	7
SCL	35	0	7	96	48	4
TAP	35	96	2
STR	35	96	7
SI_	35	96	7	96	48	3
STR	35	192	4
SI_	35	192	4	96	48	0
TAP	35	192	7
TAP	35	288	4
TAP	35	336	2
TAP	36	0	3
STR	36	48	5
SCR	36	48	5	96	96	2
TAP	36	96	4
TAP	36	144	3
TAP	36	288	0
TAP	36	288	4
TAP	37	0	4
STR	37	0	5
SI_	37	0	5	96	48	1
SLR	37	0	5	96	48	1
TAP	37	96	5
STR	37	192	2
SI_	37	192	2	96	48	6
SLL	37	192	2	96	48	6
TAP	37	192	3
TAP	37	288	2
TAP	38	0	4
STR	38	0	5
SI_	38	0	5	96	48	1
SLR	38	0	5	96	48	1
TAP	38	96	5
STR	38	192	2
SI_	38	192	2	96	48	6
SLL	38	192	2	96	48	6
TAP	38	192	3
TAP	38	288	2
TAP	39	0	3
TAP	39	0	4
TAP	39	48	3
TAP	39	48	5
TAP	39	96	2
TAP	39	96	5
TAP	39	144	1
TAP	39	144	5
TAP	39	192	1
TAP	39	192	6
TAP	39	240	1
TAP	39	240	7
STR	39	288	0
SXL	39	288	0	96	96	0
TAP	39	312	7
TAP	39	336	0
TAP	39	360	7
STR	40	0	0
SCL	40	0	0	96	96	1
STR	40	192	4
SF_	40	192	4	96	48	0
BRK	40	288	4
STR	41	0	2
SI_	41	0	2	96	48	7
TAP	41	0	7
TAP	41	96	2
STR	41	96	6
SI_	41	96	6	96	48	3
STR	41	192	2
SCL	41	192	2	96	48	7
SCR	41	192	2	96	48	5
TAP	41	192	6
TAP	41	288	2
TAP	42	0	0
STR	42	0	5
SI_	42	0	5	96	48	0
STR	42	96	1
SI_	42	96	1	96	48	4
TAP	42	96	5
TAP	42	192	1
STR	42	192	5
SCL	42	192	5	96	48	2
SCR	42	192	5	96	48	0
TAP	42	288	5
STR	43	0	2
SI_	43	0	2	96	48	7
TAP	43	0	7
TAP	43	96	2
STR	43	96	6
SI_	43	96	6	96	48	3
STR	43	192	2
SCL	43	192	2	96	48	7
SCR	43	192	2	96	48	5
TAP	43	192	6
TAP	43	288	2
TAP	44	0	0
STR	44	0	5
SI_	44	0	5	96	48	0
STR	44	96	1
SI_	44	96	1	96	48	4
TAP	44	96	5
TAP	44	192	1
STR	44	192	5
SCL	44	192	5	96	48	2
SCR	44	192	5	96	48	0
TAP	44	288	5
STR	45	0	2
SI_	45	0	2	96	48	7
TAP	45	0	7
TAP	45	96	2
STR	45	96	3
SI_	45	96	3	96	48	6
TAP	45	192	3
STR	45	192	7
SCL	45	192	7	96	48	4
SCR	45	192	7	96	48	2
TAP	45	288	7
TAP	46	0	0
STR	46	0	5
SI_	46	0	5	96	48	0
STR	46	96	4
SI_	46	96	4	96	48	1
TAP	46	96	5
STR	46	192	0
SCL	46	192	0	96	48	5
SCR	46	192	0	96	48	3
TAP	46	192	4
TAP	46	288	0
STR	47	0	2
SI_	47	0	2	96	48	7
TAP	47	0	7
TAP	47	96	2
STR	47	96	3
SI_	47	96	3	96	48	6
TAP	47	192	3
STR	47	192	7
SCL	47	192	7	96	48	4
SCR	47	192	7	96	48	2
TAP	47	288	7
STR	48	0	5
SI_	48	0	5	96	48	0
TAP	48	48	5
STR	48	96	2
SI_	48	96	2	96	48	7
TAP	48	144	2
STR	48	192	4
SI_	48	192	4	96	48	0
TAP	48	240	4
BRK	48	288	3
HLD	49	0	1	144
HLD	49	0	4	144
TAP	49	192	2
TAP	49	216	3
TAP	49	240	0
TAP	49	264	5
TAP	49	288	1
TAP	49	312	4
TAP	49	336	7
TAP	49	360	6
STR	50	0	7
SI_	50	0	7	96	48	1
TAP	50	48	7
STR	50	96	5
SI_	50	96	5	96	48	3
TAP	50	144	5
STR	50	192	2
SI_	50	192	2	96	48	6
TAP	50	240	2
HLD	51	0	0	24
HLD	51	0	4	24
HLD	51	48	1	24
HLD	51	48	5	24
HLD	51	96	0	24
HLD	51	96	4	24
HLD	51	144	3	24
HLD	51	144	7	24
STR	51	192	0
SCR	51	192	0	96	48	5
TAP	51	192	4
STR	51	288	0
SSL	51	288	0	96	144	4
STR	51	288	7
SSR	51	288	7	96	144	3
TAP	52	192	0
TAP	52	192	7
TAP	52	216	1
TAP	52	216	6
TAP	52	240	2
TAP	52	240	5
TAP	52	264	3
TAP	52	264	4
HLD	52	288	2	48
HLD	52	288	5	48
HLD	53	0	3	144
HLD	53	0	6	144
TAP	53	192	5
TAP	53	216	4
TAP	53	240	7
TAP	53	264	2
TAP	53	288	6
TAP	53	312	3
TAP	53	336	0
TAP	53	360	1
STR	54	0	0
SI_	54	0	0	96	48	6
TAP	54	48	0
STR	54	96	2
SI_	54	96	2	96	48	4
TAP	54	144	2
STR	54	192	5
SI_	54	192	5	96	48	1
TAP	54	240	5
HLD	55	0	3	24
HLD	55	0	7	24
HLD	55	48	2	24
HLD	55	48	6	24
HLD	55	96	3	24
HLD	55	96	7	24
HLD	55	144	0	24
HLD	55	144	4	24
HLD	55	192	3	24
HLD	55	192	7	24
TAP	55	240	3
TAP	55	240	7
TAP	55	336	1
TAP	55	336	6
TAP	56	0	3
TAP	56	0	4
TAP	56	48	2
TAP	56	48	5
TAP	56	96	1
TAP	56	96	6
TAP	56	144	0
TAP	56	144	7
STR	56	192	2
SI_	56	192	2	96	48	7
STR	56	192	5
SI_	56	192	5	96	48	0
BRK	56	288	2
BRK	56	288	5
STR	57	0	3
SUL	57	0	3	96	48	7
STR	57	0	7
SCL	57	0	7	96	48	4
STR	57	96	3
SUR	57	96	3	96	48	7
STR	57	96	7
SCR	57	96	7	96	48	2
STR	57	192	3
SUL	57	192	3	96	48	7
STR	57	192	7
SCL	57	192	7	96	48	4
TAP	57	288	3
TAP	57	288	7
STR	58	0	0
SCR	58	0	0	96	48	3
STR	58	0	4
SUR	58	0	4	96	48	0
STR	58	96	0
SCL	58	96	0	96	48	5
STR	58	96	4
SUL	58	96	4	96	48	0
STR	58	192	0
SCR	58	192	0	96	48	3
STR	58	192	4
SUR	58	192	4	96	48	0
TAP	58	288	0
TAP	58	288	4
STR	59	0	3
SUL	59	0	3	96	48	7
STR	59	0	7
SCL	59	0	7	96	48	4
STR	59	96	3
SUR	59	96	3	96	48	7
STR	59	96	7
SCR	59	96	7	96	48	2
TAP	59	192	3
STR	59	192	7
SCL	59	192	7	96	48	4
TAP	59	288	7
TAP	59	336	1
TAP	60	0	0
STR	60	48	6
SXL	60	48	6	96	96	1
TAP	60	96	7
TAP	60	144	0
TAP	60	288	1
TAP	60	288	4
STR	61	0	4
SI_	61	0	4	96	48	0
SLR	61	0	4	96	48	0
TAP	61	0	5
TAP	61	48	3
TAP	61	48	6
TAP	61	96	4
TAP	61	192	2
STR	61	192	3
SI_	61	192	3	96	48	7
SLL	61	192	3	96	48	7
TAP	61	240	1
TAP	61	240	4
TAP	61	288	3
STR	62	0	4
SI_	62	0	4	96	48	0
SLR	62	0	4	96	48	0
TAP	62	0	5
TAP	62	48	3
TAP	62	48	6
TAP	62	96	4
TAP	62	192	2
STR	62	192	3
SI_	62	192	3	96	48	0
TAP	62	240	1
TAP	62	240	4
TAP	62	288	3
TAP	62	336	6
TAP	63	0	7
TAP	63	48	1
TAP	63	96	0
TAP	63	144	1
STR	63	144	6
SCL	63	144	6	96	96	2
STR	63	240	2
SCL	63	240	2	96	96	6
STR	63	336	6
SCL	63	336	6	96	192	6
BRK	64	288	0
BRK	64	288	4
TAP	65	0	3
STR	65	0	4
SXR	65	0	4	96	144	1
HLD	65	192	7	96
TAP	65	288	6
HLD	66	0	2	96
HLD	66	0	3	96
TAP	66	144	2
TAP	66	144	3
TAP	66	192	1
TAP	66	192	4
TAP	66	240	2
TAP	66	240	3
STR	67	0	3
SXL	67	0	3	96	144	6
TAP	67	0	4
HLD	67	192	0	96
TAP	67	288	1
HLD	68	0	6	72
HLD	68	72	5	72
TAP	68	144	4
TAP	68	192	3
TAP	68	192	6
TAP	68	240	4
TAP	68	240	5
STR	69	0	2
SI_	69	0	2	96	48	5
TAP	69	48	2
STR	69	96	1
SI_	69	96	1	96	48	4
TAP	69	144	1
STR	69	192	0
SI_	69	192	0	96	48	3
TAP	69	240	0
STR	69	288	5
SI_	69	288	5	96	48	2
TAP	69	336	5
STR	70	0	6
SI_	70	0	6	96	48	3
TAP	70	48	6
STR	70	96	7
SI_	70	96	7	96	48	4
TAP	70	144	7
STR	70	192	3
SI_	70	192	3	96	48	0
TAP	70	240	3
TAP	70	288	4
TAP	70	336	4
TAP	71	0	5
TAP	71	48	4
TAP	71	48	6
TAP	71	96	2
TAP	71	144	1
TAP	71	144	3
TAP	71	192	6
TAP	71	240	5
TAP	71	240	7
TAP	71	288	1
TAP	71	336	0
TAP	71	336	2
TAP	72	0	6
TAP	72	24	7
TAP	72	48	5
TAP	72	72	0
TAP	72	96	4
TAP	72	120	1
TAP	72	144	3
TAP	72	168	2
TAP	72	192	3
TAP	72	204	4
TAP	72	216	5
TAP	72	228	6
TAP	72	240	7
TAP	72	252	0
TAP	72	264	1
TAP	72	276	2
BRK	72	288	3
BRK	72	288	7
STR	73	0	0
SCR	73	0	0	96	48	3
STR	73	0	4
SCR	73	0	4	96	48	7
TAP	73	96	0
STR	73	96	4
SI_	73	96	4	96	48	0
STR	73	192	4
SI_	73	192	4	96	48	7
STR	73	288	3
SI_	73	288	3	96	48	0
TAP	73	288	4
STR	74	0	2
SCL	74	0	2	96	48	7
SCR	74	0	2	96	48	5
TAP	74	0	3
STR	74	96	2
SI_	74	96	2	96	48	6
TAP	74	192	2
STR	74	192	5
SCL	74	192	5	96	48	0
TAP	74	288	5
STR	75	0	3
SCL	75	0	3	96	48	0
STR	75	0	7
SCL	75	0	7	96	48	4
STR	75	96	3
SI_	75	96	3	96	48	7
TAP	75	96	7
STR	75	192	3
SI_	75	192	3	96	48	0
TAP	75	288	3
STR	75	288	4
SI_	75	288	4	96	48	7
TAP	76	0	4
STR	76	0	5
SCL	76	0	5	96	48	2
SCR	76	0	5	96	48	0
STR	76	96	5
SI_	76	96	5	96	48	1
STR	76	192	2
SCR	76	192	2	96	48	7
TAP	76	192	5
TAP	76	288	2
STR	77	0	1
SCR	77	0	1	96	48	4
STR	77	0	5
SCR	77	0	5	96	48	0
TAP	77	96	1
STR	77	96	5
SI_	77	96	5	96	48	1
STR	77	192	5
SI_	77	192	5	96	48	0
STR	77	288	4
SI_	77	288	4	96	48	1
TAP	77	288	5
STR	78	0	3
SCL	78	0	3	96	48	0
SCR	78	0	3	96	48	6
TAP	78	0	4
STR	78	96	3
SI_	78	96	3	96	48	7
TAP	78	192	3
STR	78	192	6
SCL	78	192	6	96	48	1
TAP	78	288	6
STR	79	0	2
SCL	79	0	2	96	48	7
STR	79	0	6
SCL	79	0	6	96	48	3
STR	79	96	2
SI_	79	96	2	96	48	6
TAP	79	96	6
STR	79	192	2
SI_	79	192	2	96	48	7
TAP	79	288	2
STR	79	288	3
SI_	79	288	3	96	48	6
TAP	80	0	3
STR	80	0	4
SCL	80	0	4	96	48	1
SCR	80	0	4	96	48	7
STR	80	96	4
SI_	80	96	4	96	48	0
STR	80	192	1
SCR	80	192	1	96	48	6
TAP	80	192	4
TAP	80	288	1
BRK	80	288	7
BRK	80	336	7

T_REC_TAP	346
T_REC_BRK	20
T_REC_XTP	0
T_REC_HLD	40
T_REC_XHO	0
T_REC_STR	191
T_REC_BST	0
T_REC_XST	0
T_REC_TTP	0
T_REC_THO	0
T_REC_SLD	235
T_REC_ALL	832
T_NUM_TAP	537
T_NUM_BRK	20
T_NUM_HLD	40
T_NUM_SLD	235
T_NUM_ALL	832
T_JUDGE_TAP	557
T_JUDGE_HLD	64
T_JUDGE_SLD	235
T_JUDGE_ALL	856
TTM_EACHPAIRS	179
TTM_SCR_TAP	268500
TTM_SCR_BRK	52000
TTM_SCR_HLD	40000
TTM_SCR_SLD	352500
TTM_SCR_ALL	713000
TTM_SCR_S	689700
TTM_SCR_SS	711000
TTM_RAT_ACV	10028

