VERSION	0.00.00	1.03.00
FES_MODE	0
BPM_DEF	143.000	143.000	143.000	143.000
MET_DEF	4	4
RESOLUTION	384
CLK_DEF	384
COMPATIBLE_CODE	MA2

BPM	0	0	143.000
MET	0	0	4	4

STR	1	0	1
SXR	1	0	1	96	192	5
STR	2	0	6
SXL	2	0	6	96	192	2
STR	3	0	1
SXL	3	0	1	96	192	5
STR	4	0	6
SXR	4	0	6	96	192	2
TAP	5	0	0
TAP	5	0	7
TAP	5	96	0
TAP	5	96	7
TAP	5	192	2
TAP	5	192	3
TAP	5	264	3
TAP	5	264	4
TAP	5	336	4
TAP	5	336	5
TAP	6	0	0
TAP	6	0	7
TAP	6	96	0
TAP	6	96	7
TAP	6	192	4
TAP	6	192	5
TAP	6	264	3
TAP	6	264	4
TAP	6	336	2
TAP	6	336	3
TAP	7	0	1
TAP	7	48	1
TAP	7	96	6
TAP	7	144	6
TAP	7	192	0
TAP	7	240	0
STR	7	288	7
SCL	7	288	7	96	192	0
TAP	7	336	7
BRK	8	288	0
BRK	8	288	7
HLD	9	0	2	72
HLD	9	72	3	72
HLD	9	144	4	72
TAP	9	216	5
TAP	9	288	6
TAP	9	288	7
HLD	10	0	5	72
HLD	10	72	4	72
HLD	10	144	3	72
TAP	10	216	2
TAP	10	288	0
TAP	10	288	1
HLD	11	0	0	72
HLD	11	72	1	72
HLD	11	144	2	72
TAP	11	216	3
TAP	11	288	4
TAP	11	288	5
HLD	12	0	7	72
HLD	12	72	6	72
HLD	12	144	5	72
TAP	12	216	4
TAP	12	288	2
TAP	12	288	3
HLD	13	0	2	216
TAP	13	72	5
TAP	13	144	6
TAP	13	216	7
TAP	13	288	0
TAP	13	288	6
HLD	14	0	5	216
TAP	14	72	2
TAP	14	144	1
TAP	14	216	0
TAP	14	288	1
TAP	14	288	7
HLD	15	0	3	216
TAP	15	72	6
TAP	15	144	7
TAP	15	216	0
TAP	15	288	1
TAP	15	288	7
TAP	16	0	3
TAP	16	48	4
TAP	16	96	3
TAP	16	144	4
HLD	16	192	0	96
BRK	16	288	7
TAP	17	0	1
TAP	17	96	2
TAP	17	96	3
TAP	17	192	6
TAP	17	288	4
TAP	17	288	5
TAP	18	0	2
TAP	18	48	3
TAP	18	96	4
HLD	18	144	5	192
TAP	18	240	7
TAP	18	336	7
TAP	19	48	1
TAP	19	144	0
TAP	19	144	1
TAP	19	240	6
TAP	19	336	6
TAP	19	336	7
TAP	20	48	2
TAP	20	144	2
TAP	20	144	3
TAP	20	240	3
TAP	20	240	4
TAP	20	288	3
TAP	20	288	4
TAP	21	0	6
TAP	21	96	4
TAP	21	96	5
TAP	21	192	1
TAP	21	288	2
TAP	21	288	3
TAP	22	0	5
TAP	22	48	4
TAP	22	96	3
HLD	22	144	2	192
TAP	22	240	0
TAP	22	336	0
TAP	23	48	3
TAP	23	96	4
TAP	23	144	3
TAP	23	192	4
TAP	23	240	3
STR	23	288	4
SXR	23	288	4	96	192	0
TAP	23	336	3
BRK	24	288	1
BRK	24	288	6
TAP	25	0	5
TAP	25	48	4
TAP	25	96	3
TAP	25	96	5
TAP	25	192	2
TAP	25	240	3
TAP	25	288	2
TAP	25	288	4
STR	26	0	1
SCR	26	0	1	96	48	4
TAP	26	96	7
STR	26	192	5
SCR	26	192	5	96	48	0
TAP	26	288	3
TAP	27	0	1
TAP	27	48	0
TAP	27	96	1
TAP	27	96	7
TAP	27	192	6
TAP	27	240	7
TAP	27	288	0
TAP	27	288	6
STR	28	0	2
SXL	28	0	2	96	192	6
SXR	28	0	2	96	192	6
TAP	29	0	5
TAP	29	0	7
STR	29	96	0
SCR	29	96	0	96	96	3
STR	29	96	4
SXL	29	96	4	96	96	6
TAP	30	0	0
TAP	30	0	2
STR	30	96	3
SXR	30	96	3	96	96	1
STR	30	96	7
SCL	30	96	7	96	96	4
TAP	31	0	0
TAP	31	48	7
TAP	31	96	0
TAP	31	144	7
STR	31	240	0
SCR	31	240	0	96	240	7
STR	31	240	7
SCL	31	240	7	96	240	0
BRK	32	288	1
BRK	32	288	6
TAP	33	0	2
TAP	33	48	4
TAP	33	96	3
TAP	33	96	5
TAP	33	192	5
TAP	33	240	3
TAP	33	288	2
TAP	33	288	4
STR	34	0	1
SI_	34	0	1	96	48	4
SI_	34	0	1	96	48	5
STR	34	192	6
SI_	34	192	6	96	48	2
SI_	34	192	6	96	48	3
TAP	35	0	1
TAP	35	48	7
TAP	35	96	0
TAP	35	96	6
TAP	35	192	6
TAP	35	240	0
TAP	35	288	1
TAP	35	288	7
STR	36	0	0
SCR	36	0	0	96	96	3
STR	36	0	6
SCL	36	0	6	96	96	3
TAP	36	288	2
TAP	36	288	7
TAP	37	0	0
TAP	37	0	4
STR	37	96	2
SXR	37	96	2	96	96	0
STR	37	96	6
SCL	37	96	6	96	96	3
TAP	38	0	3
TAP	38	0	7
STR	38	96	1
SCR	38	96	1	96	96	4
STR	38	96	5
SXL	38	96	5	96	96	7
TAP	39	0	0
TAP	39	48	7
TAP	39	96	1
TAP	39	144	6
TAP	39	192	2
TAP	39	240	5
STR	39	288	3
SCR	39	288	3	96	192	0
SUR	39	288	3	96	192	1
TAP	39	336	4
BRK	40	288	1
BRK	40	288	6
HLD	41	0	6	72
HLD	41	72	7	72
HLD	41	144	0	72
TAP	41	216	1
TAP	41	288	2
TAP	41	288	3
HLD	42	0	1	72
HLD	42	72	0	72
HLD	42	144	7	72
TAP	42	216	6
TAP	42	288	4
TAP	42	288	5
HLD	43	0	3	72
HLD	43	72	2	72
HLD	43	144	1	72
TAP	43	216	0
TAP	43	288	1
TAP	43	288	7
HLD	44	0	4	72
HLD	44	72	5	72
HLD	44	144	6	72
TAP	44	216	7
TAP	44	288	0
TAP	44	288	6
HLD	45	0	2	144
TAP	45	72	0
HLD	45	144	5	144
TAP	45	216	7
TAP	45	288	2
HLD	46	0	5	144
TAP	46	72	7
HLD	46	144	2	144
TAP	46	216	0
TAP	46	288	5
HLD	47	0	3	144
TAP	47	72	1
HLD	47	144	7	144
TAP	47	216	5
TAP	47	288	3
HLD	48	0	4	144
TAP	48	72	6
HLD	48	144	0	144
TAP	48	216	2
TAP	48	288	4
STR	49	0	0
SI_	49	0	0	96	48	3
STR	49	0	4
SI_	49	0	4	96	48	7
TAP	49	192	2
TAP	49	192	6
TAP	49	288	0
TAP	49	288	4
TAP	50	0	3
TAP	50	48	2
TAP	50	96	1
STR	50	144	0
SCR	50	144	0	96	48	3
STR	50	144	4
SCR	50	144	4	96	48	7
TAP	51	0	1
TAP	51	48	0
TAP	51	96	7
TAP	51	144	6
HLD	51	192	5	96
TAP	51	288	3
TAP	52	0	4
TAP	52	48	5
TAP	52	96	6
TAP	52	144	7
STR	52	192	0
SI_	52	192	0	96	48	3
SI_	52	192	0	96	48	4
STR	53	0	3
SI_	53	0	3	96	48	0
STR	53	0	7
SI_	53	0	7	96	48	4
TAP	53	192	1
TAP	53	192	5
TAP	53	288	3
TAP	53	288	7
TAP	54	0	4
TAP	54	48	5
TAP	54	96	6
STR	54	144	3
SCL	54	144	3	96	48	0
STR	54	144	7
SCL	54	144	7	96	48	4
TAP	55	0	6
TAP	55	48	7
TAP	55	96	0
TAP	55	144	1
HLD	55	192	2	96
TAP	55	288	4
TAP	56	0	3
TAP	56	48	4
TAP	56	96	5
STR	56	144	6
SI_	56	144	6	96	48	2
TAP	56	240	0
STR	56	288	0
SCL	56	288	0	96	144	1
STR	57	96	0
SCL	57	96	0	96	144	1
TAP	57	288	0
TAP	58	0	7
TAP	58	48	0
TAP	58	96	7
STR	58	144	0
SUL	58	144	0	96	96	1
TAP	59	0	4
TAP	59	48	3
TAP	59	96	1
TAP	59	96	4
TAP	59	192	3
TAP	59	240	4
TAP	59	288	3
TAP	59	288	6
TAP	60	0	7
TAP	60	48	0
TAP	60	96	1
STR	60	144	2
SI_	60	144	2	96	48	6
SI_	60	144	2	96	48	7
TAP	61	0	5
TAP	61	0	7
STR	61	96	0
SXL	61	96	0	96	96	1
STR	61	96	4
SXL	61	96	4	96	96	5
TAP	62	0	0
TAP	62	0	2
STR	62	96	3
SXR	62	96	3	96	96	2
STR	62	96	7
SXR	62	96	7	96	96	6
TAP	63	0	3
TAP	63	48	7
TAP	63	96	3
STR	63	144	7
SCL	63	144	7	96	96	4
STR	63	240	3
SUL	63	240	3	96	192	0
BRK	64	288	1
BRK	64	288	6
STR	65	0	3
SUR	65	0	3	96	96	1
STR	65	192	7
SCL	65	192	7	96	96	3
STR	66	0	1
SXL	66	0	1	96	192	5
SXR	66	0	1	96	192	5
STR	67	0	4
SUL	67	0	4	96	96	6
STR	67	192	0
SCR	67	192	0	96	96	4
STR	68	0	6
SXL	68	0	6	96	192	2
SXR	68	0	6	96	192	2
TAP	69	0	1
TAP	69	0	3
TAP	69	96	2
TAP	69	192	4
TAP	69	192	6
TAP	69	288	5
TAP	70	0	0
TAP	70	0	2
TAP	70	96	1
TAP	70	192	5
TAP	70	192	7
TAP	70	288	6
TAP	71	0	1
TAP	71	48	1
TAP	71	96	6
TAP	71	144	6
TAP	71	192	0
TAP	71	240	0
STR	71	288	7
SCL	71	288	7	96	192	0
SUL	71	288	7	96	192	0
TAP	71	336	7
BRK	72	288	1
BRK	72	288	6
HLD	73	0	0	216
TAP	73	0	2
TAP	73	72	4
TAP	73	144	6
TAP	73	216	4
TAP	73	288	3
TAP	73	288	5
TAP	74	0	5
HLD	74	0	7	216
TAP	74	72	3
TAP	74	144	1
TAP	74	216	3
TAP	74	288	2
TAP	74	288	4
HLD	75	0	3	216
TAP	75	0	5
TAP	75	72	7
TAP	75	144	1
TAP	75	216	7
TAP	75	288	0
TAP	75	288	6
TAP	76	0	2
HLD	76	0	4	216
TAP	76	72	0
TAP	76	144	6
TAP	76	216	0
TAP	76	288	1
TAP	76	288	7
HLD	77	0	0	72
TAP	77	0	2
TAP	77	72	4
TAP	77	144	5
HLD	77	144	7	72
TAP	77	216	3
TAP	77	288	1
TAP	77	288	5
TAP	78	0	5
HLD	78	0	7	72
TAP	78	72	3
HLD	78	144	0	72
TAP	78	144	2
TAP	78	216	4
TAP	78	288	2
TAP	78	288	6
HLD	79	0	3	72
TAP	79	0	5
TAP	79	72	0
TAP	79	144	1
HLD	79	144	7	72
TAP	79	216	4
TAP	79	288	2
TAP	79	288	6
TAP	80	0	0
TAP	80	0	4
TAP	80	72	1
TAP	80	72	5
TAP	80	144	2
TAP	80	144	6
TAP	80	216	3
STR	80	216	7
SF_	80	216	7	96	48	3

T_REC_TAP	300
T_REC_BRK	13
T_REC_XTP	0
T_REC_HLD	50
T_REC_XHO	0
T_REC_STR	52
T_REC_BST	0
T_REC_XST	0
T_REC_TTP	0
T_REC_THO	0
T_REC_SLD	61
T_REC_ALL	476
T_NUM_TAP	352
T_NUM_BRK	13
T_NUM_HLD	50
T_NUM_SLD	61
T_NUM_ALL	476
T_JUDGE_TAP	365
T_JUDGE_HLD	133
T_JUDGE_SLD	61
T_JUDGE_ALL	559
TTM_EACHPAIRS	94
TTM_SCR_TAP	176000
TTM_SCR_BRK	33800
TTM_SCR_HLD	50000
TTM_SCR_SLD	91500
TTM_SCR_ALL	351300
TTM_SCR_S	339500
TTM_SCR_SS	350000
TTM_RAT_ACV	10037

