VERSION	0.00.00	1.03.00
FES_MODE	0
BPM_DEF	143.000	143.000	143.000	143.000
MET_DEF	4	4
RESOLUTION	384
CLK_DEF	384
COMPATIBLE_CODE	MA2

BPM	0	0	143.000
MET	0	0	4	4

STR	1	0	1
SUR	1	0	1	96	240	4
STR	2	0	6
SUL	2	0	6	96	240	3
STR	3	0	2
SXR	3	0	2	96	240	4
STR	4	0	5
SXL	4	0	5	96	240	3
TAP	5	0	2
TAP	5	96	3
TAP	5	192	4
TAP	5	288	5
TAP	5	336	4
TAP	6	0	5
TAP	6	96	4
TAP	6	192	3
TAP	6	288	2
TAP	6	336	3
TAP	7	0	2
TAP	7	96	1
TAP	7	96	3
TAP	7	192	5
TAP	7	288	4
TAP	7	288	6
STR	8	0	2
SCL	8	0	2	96	120	5
BRK	8	288	0
BRK	8	288	7
TAP	9	0	1
TAP	9	96	2
TAP	9	96	3
TAP	9	192	3
TAP	9	192	4
TAP	9	288	5
TAP	9	336	4
TAP	10	0	6
TAP	10	96	4
TAP	10	96	5
TAP	10	192	3
TAP	10	192	4
TAP	10	288	2
TAP	10	336	3
TAP	11	0	1
TAP	11	96	2
TAP	11	96	3
TAP	11	192	3
TAP	11	192	4
TAP	11	288	5
TAP	11	336	4
TAP	12	0	6
TAP	12	96	6
TAP	12	96	7
TAP	12	192	1
TAP	12	288	0
TAP	12	288	1
TAP	13	0	2
TAP	13	96	0
TAP	13	96	1
TAP	13	192	0
TAP	13	192	7
TAP	13	288	6
TAP	13	336	7
TAP	14	0	5
TAP	14	96	6
TAP	14	96	7
TAP	14	192	0
TAP	14	192	7
TAP	14	288	1
TAP	14	336	0
TAP	15	0	2
TAP	15	96	1
TAP	15	96	3
TAP	15	192	2
TAP	15	192	4
TAP	15	288	3
TAP	15	288	5
TAP	16	0	6
TAP	16	48	6
TAP	16	96	0
TAP	16	144	0
STR	16	192	7
SI_	16	192	7	96	48	3
TAP	17	0	2
STR	17	96	2
SCR	17	96	2	96	96	5
TAP	18	0	6
TAP	18	96	6
TAP	18	96	7
TAP	18	192	0
TAP	18	240	7
TAP	18	288	0
TAP	19	0	1
TAP	19	96	0
TAP	19	96	1
TAP	19	192	7
TAP	19	240	0
TAP	19	288	7
TAP	20	0	6
TAP	20	96	3
TAP	20	96	5
TAP	20	192	1
TAP	20	288	2
TAP	20	288	4
TAP	21	0	5
STR	21	96	5
SCL	21	96	5	96	96	2
TAP	22	0	1
TAP	22	96	0
TAP	22	96	1
TAP	22	192	7
TAP	22	240	0
TAP	22	288	7
TAP	23	0	6
TAP	23	96	6
TAP	23	96	7
TAP	23	192	0
TAP	23	240	7
TAP	23	288	0
TAP	24	0	2
TAP	24	0	3
TAP	24	96	4
TAP	24	96	6
TAP	24	192	1
TAP	24	192	5
BRK	24	288	3
BRK	24	288	7
STR	25	0	2
SI_	25	0	2	96	48	5
STR	25	192	6
SI_	25	192	6	96	48	3
TAP	26	0	2
TAP	26	96	0
TAP	26	96	1
TAP	26	192	0
TAP	26	192	7
TAP	26	288	6
TAP	26	288	7
STR	27	0	5
SI_	27	0	5	96	48	0
STR	27	192	1
SI_	27	192	1	96	48	6
TAP	28	0	5
STR	28	96	3
SCL	28	96	3	96	96	0
STR	28	96	4
SCR	28	96	4	96	96	7
TAP	29	0	0
TAP	29	0	7
TAP	29	96	0
TAP	29	96	1
TAP	29	192	2
TAP	29	240	3
TAP	29	288	1
TAP	30	0	0
TAP	30	0	7
TAP	30	96	6
TAP	30	96	7
TAP	30	192	5
TAP	30	240	4
TAP	30	288	6
TAP	31	0	7
TAP	31	48	7
TAP	31	96	0
TAP	31	96	1
TAP	31	192	0
TAP	31	240	0
TAP	31	288	6
TAP	31	288	7
TAP	32	0	3
TAP	32	48	3
TAP	32	96	4
TAP	32	144	4
TAP	32	192	3
TAP	32	192	4
BRK	32	288	1
BRK	32	288	6
STR	33	0	5
SI_	33	0	5	96	48	2
STR	33	192	1
SI_	33	192	1	96	48	4
TAP	34	0	5
TAP	34	96	6
TAP	34	96	7
TAP	34	192	0
TAP	34	192	7
TAP	34	288	0
TAP	34	288	1
STR	35	0	2
SI_	35	0	2	96	48	7
STR	35	192	6
SI_	35	192	6	96	48	1
TAP	36	0	2
STR	36	96	3
SCL	36	96	3	96	96	0
STR	36	96	4
SCR	36	96	4	96	96	7
TAP	37	0	0
TAP	37	0	7
TAP	37	96	6
TAP	37	96	7
TAP	37	192	5
TAP	37	240	4
TAP	37	288	6
TAP	38	0	0
TAP	38	0	7
TAP	38	96	0
TAP	38	96	1
TAP	38	192	2
TAP	38	240	3
TAP	38	288	1
TAP	39	0	0
TAP	39	48	0
TAP	39	96	7
TAP	39	144	7
TAP	39	192	1
TAP	39	240	1
TAP	39	288	6
TAP	39	336	6
TAP	40	0	0
TAP	40	48	7
TAP	40	96	0
TAP	40	144	7
TAP	40	192	0
BST	40	288	3
SF_	40	288	3	96	240	7
TAP	42	0	1
TAP	42	96	2
TAP	42	192	3
TAP	42	288	4
TAP	42	288	5
TAP	43	0	6
TAP	43	96	5
TAP	43	192	4
TAP	43	288	2
TAP	43	288	3
TAP	44	0	1
TAP	44	96	0
TAP	44	96	1
TAP	44	192	6
TAP	44	288	6
TAP	44	288	7
TAP	45	0	5
TAP	45	96	6
TAP	45	192	7
TAP	45	288	0
TAP	45	288	1
TAP	46	0	2
TAP	46	96	1
TAP	46	192	0
TAP	46	288	6
TAP	46	288	7
TAP	47	0	5
TAP	47	96	4
TAP	47	192	3
TAP	47	288	2
TAP	47	288	5
TAP	48	0	6
TAP	48	96	6
TAP	48	96	7
TAP	48	192	1
TAP	48	288	0
TAP	48	288	1
HLD	49	0	2	192
TAP	49	192	3
TAP	49	288	1
TAP	49	288	4
HLD	50	0	5	192
TAP	50	192	4
TAP	50	288	3
TAP	50	288	6
HLD	51	0	7	192
TAP	51	192	0
TAP	51	288	1
TAP	51	288	6
HLD	52	0	2	96
TAP	52	96	3
HLD	52	192	5	96
TAP	52	288	4
HLD	53	0	6	192
TAP	53	192	7
TAP	53	288	0
TAP	53	288	5
HLD	54	0	1	192
TAP	54	192	0
TAP	54	288	2
TAP	54	288	7
HLD	55	0	3	192
TAP	55	192	4
TAP	55	288	1
TAP	55	288	6
TAP	56	0	6
TAP	56	0	7
TAP	56	96	4
TAP	56	96	5
TAP	56	192	2
TAP	56	192	3
TAP	56	288	0
TAP	56	288	1
STR	57	0	7
SCL	57	0	7	96	72	4
STR	57	192	3
SCL	57	192	3	96	72	0
TAP	58	0	7
TAP	58	96	4
TAP	58	96	5
TAP	58	192	0
TAP	58	288	2
TAP	58	288	3
STR	59	0	0
SCR	59	0	0	96	72	3
STR	59	192	4
SCR	59	192	4	96	72	7
TAP	60	0	0
STR	60	96	2
SCL	60	96	2	96	96	7
STR	60	96	3
SUL	60	96	3	96	96	6
TAP	61	0	4
TAP	61	0	5
TAP	61	96	3
TAP	61	96	4
TAP	61	192	2
TAP	61	240	3
TAP	61	288	1
TAP	62	0	2
TAP	62	0	3
TAP	62	96	3
TAP	62	96	4
TAP	62	192	5
TAP	62	240	4
TAP	62	288	6
TAP	63	0	7
TAP	63	48	7
TAP	63	96	0
TAP	63	144	0
TAP	63	192	0
TAP	63	192	7
TAP	63	288	2
TAP	63	288	5
TAP	64	0	3
TAP	64	48	3
TAP	64	96	4
TAP	64	144	4
TAP	64	192	3
TAP	64	192	4
BRK	64	288	1
BRK	64	288	6
STR	65	0	0
SCR	65	0	0	96	192	7
TAP	66	0	0
TAP	66	0	1
TAP	66	96	2
TAP	66	96	3
TAP	66	192	4
TAP	66	192	5
TAP	66	288	6
TAP	66	288	7
STR	67	0	7
SCL	67	0	7	96	192	0
TAP	68	0	6
TAP	68	0	7
STR	68	96	4
SUR	68	96	4	96	96	1
STR	68	96	5
SCR	68	96	5	96	96	0
TAP	69	0	2
TAP	69	0	3
TAP	69	96	3
TAP	69	96	4
TAP	69	192	5
TAP	69	240	4
TAP	69	288	6
TAP	70	0	4
TAP	70	0	5
TAP	70	96	3
TAP	70	96	4
TAP	70	192	2
TAP	70	240	3
TAP	70	288	1
TAP	71	0	0
TAP	71	48	0
TAP	71	96	7
TAP	71	144	7
TAP	71	192	1
TAP	71	240	1
TAP	71	288	6
TAP	71	336	6
TAP	72	0	0
TAP	72	48	7
TAP	72	96	0
TAP	72	144	7
TAP	72	192	0
BST	72	288	3
SXR	72	288	3	96	288	0
BST	72	288	4
SXL	72	288	4	96	288	7
TAP	74	0	1
TAP	74	96	0
TAP	74	192	1
TAP	74	288	2
TAP	74	288	7
TAP	75	0	6
TAP	75	96	7
TAP	75	192	6
TAP	75	288	0
TAP	75	288	5
TAP	76	0	1
TAP	76	96	2
TAP	76	96	7
TAP	76	192	6
TAP	76	288	0
TAP	76	288	5
TAP	77	0	6
TAP	77	96	4
TAP	77	192	5
TAP	77	288	3
TAP	77	288	7
TAP	78	0	1
TAP	78	96	3
TAP	78	192	2
TAP	78	288	0
TAP	78	288	4
TAP	79	0	1
TAP	79	96	0
TAP	79	96	2
TAP	79	192	6
TAP	79	288	5
TAP	79	288	7
TAP	80	0	0
TAP	80	48	7
TAP	80	96	0
TAP	80	144	7
TAP	80	192	1
TAP	80	240	6
TAP	80	288	2
TAP	80	336	5

T_REC_TAP	354
T_REC_BRK	8
T_REC_XTP	0
T_REC_HLD	8
T_REC_XHO	0
T_REC_STR	30
T_REC_BST	3
T_REC_XST	0
T_REC_TTP	0
T_REC_THO	0
T_REC_SLD	33
T_REC_ALL	436
T_NUM_TAP	384
T_NUM_BRK	11
T_NUM_HLD	8
T_NUM_SLD	33
T_NUM_ALL	436
T_JUDGE_TAP	395
T_JUDGE_HLD	28
T_JUDGE_SLD	33
T_JUDGE_ALL	456
TTM_EACHPAIRS	97
TTM_SCR_TAP	192000
TTM_SCR_BRK	28600
TTM_SCR_HLD	8000
TTM_SCR_SLD	49500
TTM_SCR_ALL	278100
TTM_SCR_S	268700
TTM_SCR_SS	277000
TTM_RAT_ACV	10039

