VERSION	0.00.00	1.03.00
FES_MODE	0
BPM_DEF	143.000	143.000	143.000	143.000
MET_DEF	4	4
RESOLUTION	384
CLK_DEF	384
COMPATIBLE_CODE	MA2

BPM	0	0	143.000

TAP	1	0	0
TAP	2	0	0
TAP	3	0	7
TAP	4	0	7
TAP	5	0	0
TAP	5	192	0
TAP	6	0	1
TAP	6	192	1
TAP	7	0	2
TAP	7	192	2
HLD	8	0	3	192
HLD	8	0	4	192
TAP	9	0	4
TAP	9	192	4
TAP	10	0	5
TAP	10	192	5
TAP	11	0	6
TAP	11	192	6
TAP	12	0	7
TAP	12	192	0
TAP	12	192	7
TAP	13	0	0
TAP	13	192	0
TAP	14	0	1
TAP	14	192	1
TAP	15	0	2
TAP	15	192	2
TAP	16	0	3
TAP	16	192	3
TAP	16	192	4
TAP	17	0	4
TAP	17	192	4
TAP	18	0	4
TAP	18	96	4
TAP	18	192	4
TAP	19	0	3
TAP	19	192	3
TAP	20	0	3
TAP	20	96	3
TAP	20	192	3
TAP	21	0	2
TAP	21	192	2
TAP	22	0	2
TAP	22	96	2
TAP	22	192	2
TAP	23	0	1
TAP	23	192	1
TAP	24	0	0
TAP	24	0	1
TAP	25	0	7
TAP	25	96	7
TAP	25	192	7
TAP	26	0	6
TAP	26	96	6
TAP	26	192	6
TAP	27	0	5
TAP	27	96	5
TAP	27	192	5
TAP	28	0	4
TAP	28	96	3
TAP	28	192	4
TAP	29	0	3
TAP	29	96	3
TAP	29	192	3
TAP	30	0	2
TAP	30	96	2
TAP	30	192	2
TAP	31	0	1
TAP	31	96	1
TAP	31	192	1
HLD	32	0	0	192
TAP	33	0	0
TAP	33	96	0
TAP	33	192	0
TAP	34	0	1
TAP	34	96	1
TAP	34	192	1
TAP	35	0	2
TAP	35	96	2
TAP	35	192	2
TAP	36	0	3
TAP	36	96	4
TAP	36	192	3
TAP	37	0	4
TAP	37	96	4
TAP	37	192	4
TAP	38	0	5
TAP	38	96	5
TAP	38	192	5
TAP	39	0	6
TAP	39	96	6
TAP	39	192	6
HLD	40	0	7	192
STR	41	0	7
SI_	41	0	7	96	288	4
STR	43	0	0
SI_	43	0	0	96	288	3
TAP	45	0	7
TAP	45	192	6
TAP	46	0	5
TAP	46	192	4
TAP	47	0	3
TAP	47	192	2
TAP	48	0	1
TAP	48	192	0
TAP	49	0	7
TAP	49	192	7
TAP	50	0	0
TAP	50	0	7
TAP	50	192	0
TAP	50	192	7
TAP	51	0	6
TAP	51	192	6
HLD	52	0	6	192
HLD	52	0	7	192
TAP	53	0	5
TAP	53	192	5
TAP	54	0	4
TAP	54	0	5
TAP	54	192	4
TAP	54	192	5
TAP	55	0	3
TAP	55	96	4
TAP	55	192	3
TAP	56	0	3
TAP	56	0	4
BRK	56	192	2
BRK	56	192	5
TAP	57	0	3
TAP	57	96	3
TAP	57	192	3
TAP	57	192	4
TAP	58	0	2
TAP	58	96	2
TAP	58	192	2
TAP	58	192	3
TAP	59	0	1
TAP	59	96	1
TAP	59	192	0
TAP	59	192	1
TAP	60	0	0
TAP	60	96	7
TAP	60	192	0
TAP	61	0	7
TAP	61	96	7
TAP	61	192	0
TAP	61	192	7
TAP	62	0	6
TAP	62	96	6
TAP	62	192	6
TAP	62	192	7
TAP	63	0	5
TAP	63	96	5
TAP	63	192	4
TAP	63	192	5
HLD	64	0	3	192
HLD	64	0	4	192
TAP	65	0	4
TAP	65	96	4
TAP	65	192	3
TAP	65	192	4
TAP	66	0	5
TAP	66	96	5
TAP	66	192	4
TAP	66	192	5
TAP	67	0	6
TAP	67	96	6
TAP	67	192	6
TAP	67	192	7
TAP	68	0	7
TAP	68	96	0
TAP	68	192	7
TAP	69	0	0
TAP	69	96	0
TAP	69	192	0
TAP	69	192	7
TAP	70	0	1
TAP	70	96	1
TAP	70	192	0
TAP	70	192	1
TAP	71	0	2
TAP	71	96	2
TAP	71	192	2
TAP	71	192	3
HLD	72	0	3	192
HLD	72	0	4	192
STR	73	0	3
SI_	73	0	3	96	288	0
STR	75	0	4
SI_	75	0	4	96	288	7
TAP	77	0	3
TAP	77	192	2
TAP	78	0	1
TAP	78	192	0
TAP	79	0	7
TAP	79	192	6
TAP	80	0	5
TAP	80	192	4
TAP	81	0	3
TAP	81	0	4

T_REC_TAP	180
T_REC_BRK	2
T_REC_XTP	0
T_REC_HLD	10
T_REC_XHO	0
T_REC_STR	4
T_REC_BST	0
T_REC_XST	0
T_REC_TTP	0
T_REC_THO	0
T_REC_SLD	4
T_REC_ALL	200
T_NUM_TAP	184
T_NUM_BRK	2
T_NUM_HLD	10
T_NUM_SLD	4
T_NUM_ALL	200
T_JUDGE_TAP	186
T_JUDGE_HLD	40
T_JUDGE_SLD	4
T_JUDGE_ALL	230
TTM_EACHPAIRS	26
TTM_SCR_TAP	92000
TTM_SCR_BRK	5200
TTM_SCR_HLD	10000
TTM_SCR_SLD	6000
TTM_SCR_ALL	113200
TTM_SCR_S	109650
TTM_SCR_SS	113000
TTM_RAT_ACV	10017

