VERSION	0.00.00	1.03.00
FES_MODE	0
BPM_DEF	165.000	165.000	165.000	165.000
MET_DEF	4	4
RESOLUTION	384
CLK_DEF	384
COMPATIBLE_CODE	MA2

BPM	0	0	165.000
MET	0	0	4	4

STR	1	0	7
SCR	1	0	7	96	192	6
STR	1	288	1
SI_	1	288	1	96	36	5
TAP	2	0	1
STR	2	0	4
SI_	2	0	4	96	36	7
BRK	2	96	0
BRK	2	96	4
TAP	2	144	3
TAP	2	240	6
TAP	2	288	0
TAP	2	288	5
TAP	2	336	4
TAP	3	0	1
TAP	3	0	3
TAP	3	96	2
TAP	3	144	3
TAP	3	144	5
TAP	3	168	4
TAP	3	240	6
TAP	3	288	5
TAP	3	336	4
TAP	4	0	2
STR	4	0	3
SI_	4	0	3	96	36	0
BRK	4	96	3
BRK	4	96	7
TAP	4	144	4
TAP	4	240	1
TAP	4	288	2
TAP	4	288	7
TAP	4	336	3
TAP	5	0	4
TAP	5	0	6
TAP	5	96	5
TAP	5	144	3
TAP	5	168	4
HLD	5	192	3	48
TAP	5	240	5
HLD	5	264	2	48
TAP	5	312	4
TAP	5	336	1
STR	6	0	0
SI_	6	0	0	96	36	5
STR	6	0	3
SI_	6	0	3	96	36	6
BRK	6	96	0
BRK	6	96	3
TAP	6	240	1
TAP	6	240	4
TAP	6	288	2
TAP	6	288	5
TAP	6	336	3
TAP	6	336	6
STR	7	0	4
SI_	7	0	4	96	36	1
STR	7	0	7
SI_	7	0	7	96	36	2
BRK	7	96	4
BRK	7	96	7
TAP	7	240	4
TAP	7	240	5
TAP	7	288	3
TAP	7	288	6
TAP	7	336	2
TAP	7	336	7
TAP	8	0	1
TAP	8	24	0
TAP	8	48	1
TAP	8	96	2
BRK	8	96	3
TAP	8	144	4
TAP	8	192	6
TAP	8	216	7
TAP	8	240	6
BST	8	288	4
SI_	8	288	4	96	36	6
TAP	8	288	5
STR	8	336	3
SI_	8	336	3	96	36	1
STR	9	0	4
SI_	9	0	4	96	36	0
STR	9	48	3
SI_	9	48	3	96	36	7
TAP	9	96	4
TAP	9	144	3
TAP	9	192	4
TAP	9	204	5
TAP	9	216	6
TAP	9	228	7
TAP	9	240	0
TAP	9	252	1
TAP	9	264	2
TAP	9	276	3
STR	9	288	4
SF_	9	288	4	96	36	0
BRK	10	0	4
TAP	10	240	4
TAP	10	288	3
HLD	10	336	2	144
HLD	11	96	0	96
HLD	11	192	7	96
HLD	11	288	5	96
STR	12	0	4
SXR	12	0	4	96	96	2
STR	12	96	6
SCL	12	96	6	96	72	4
TAP	12	144	6
TAP	12	288	1
TAP	13	0	2
STR	13	0	3
SXL	13	0	3	96	96	5
STR	13	96	1
SCR	13	96	1	96	72	3
TAP	13	144	1
TAP	13	288	6
TAP	14	0	2
TAP	14	0	5
TAP	14	48	3
TAP	14	96	3
TAP	14	96	5
HLD	14	192	4	48
TAP	14	192	5
HLD	14	264	4	48
TAP	14	288	5
TAP	14	336	4
TAP	15	0	5
TAP	15	48	3
TAP	15	96	3
TAP	15	96	5
HLD	15	192	2	48
TAP	15	192	5
HLD	15	264	2	48
TAP	15	288	5
TAP	15	336	2
TAP	16	0	5
TAP	16	48	3
TAP	16	96	3
TAP	16	96	5
HLD	16	192	4	48
TAP	16	192	5
HLD	16	264	4	48
TAP	16	288	5
STR	16	336	4
SXL	16	336	4	96	144	2
HLD	17	0	5	288
TAP	17	288	1
TAP	17	300	0
TAP	17	312	7
TAP	17	324	6
TAP	17	336	5
TAP	17	348	4
TAP	17	360	3
TAP	17	372	2
TAP	18	0	1
TAP	18	0	6
TAP	18	48	7
TAP	18	96	0
TAP	18	96	1
HLD	18	192	2	48
HLD	18	192	3	48
HLD	18	264	1	48
HLD	18	264	4	48
TAP	18	336	0
TAP	18	336	5
TAP	19	0	7
TAP	19	48	6
TAP	19	96	4
TAP	19	96	5
HLD	19	192	3	48
HLD	19	192	5	48
HLD	19	264	2	48
HLD	19	264	6	48
TAP	19	336	1
TAP	19	336	7
TAP	20	0	0
TAP	20	48	1
TAP	20	96	2
TAP	20	96	3
HLD	20	192	3	48
HLD	20	192	6	48
HLD	20	264	2	48
HLD	20	264	7	48
TAP	20	336	0
STR	20	336	1
SI_	20	336	1	96	36	5
STR	21	0	0
SI_	21	0	0	96	36	4
TAP	21	0	1
BRK	21	48	1
BRK	21	96	0
TAP	21	192	5
TAP	21	192	7
TAP	21	216	5
TAP	21	216	7
TAP	21	264	3
TAP	21	264	4
TAP	21	288	3
TAP	21	288	4
TAP	21	336	0
TAP	21	336	2
TAP	21	360	0
TAP	21	360	2
BST	22	0	1
SI_	22	0	1	96	36	4
TAP	22	48	7
TAP	22	96	7
TAP	22	144	6
HLD	22	192	3	48
HLD	22	192	5	48
HLD	22	264	4	48
HLD	22	264	6	48
TAP	22	336	5
TAP	22	336	7
STR	23	0	6
SI_	23	0	6	96	36	3
TAP	23	48	0
TAP	23	96	0
TAP	23	144	1
HLD	23	192	2	48
HLD	23	192	4	48
HLD	23	264	1	48
HLD	23	264	3	48
TAP	23	336	0
TAP	23	336	2
STR	24	0	1
SXR	24	0	1	96	192	6
TAP	24	48	2
TAP	24	96	2
HLD	24	192	3	48
HLD	24	264	4	48
TAP	24	336	5
TAP	25	0	4
TAP	25	0	5
TAP	25	48	4
TAP	25	48	5
TAP	25	96	2
TAP	25	96	3
TAP	25	144	2
TAP	25	144	3
BRK	25	192	5
BRK	25	192	7
TAP	25	216	5
TAP	25	216	7
BRK	25	264	0
BRK	25	264	2
TAP	25	288	0
TAP	25	288	2
BRK	25	336	1
BRK	25	336	6
TAP	26	0	4
TAP	26	24	3
TAP	26	48	5
TAP	26	96	4
TAP	26	96	6
TAP	26	144	7
HLD	26	168	7	48
TAP	26	216	5
TAP	26	240	6
TAP	26	264	4
TAP	26	288	5
TAP	26	312	3
TAP	26	336	4
TAP	26	360	2
TAP	27	0	3
TAP	27	24	1
TAP	27	48	2
TAP	27	96	1
TAP	27	96	3
TAP	27	144	0
HLD	27	168	0	48
HLD	27	216	5	48
TAP	27	264	2
TAP	27	288	2
TAP	27	336	3
STR	27	336	4
SI_	27	336	4	96	36	0
TAP	28	0	2
TAP	28	0	5
STR	28	48	3
SI_	28	48	3	96	36	7
BRK	28	48	4
TAP	28	96	2
BRK	28	144	3
TAP	28	144	4
BRK	28	192	5
TAP	28	240	6
BRK	28	264	6
TAP	28	264	7
TAP	28	312	1
TAP	28	336	0
BST	28	336	1
SI_	28	336	1	96	36	4
TAP	29	24	5
BRK	29	48	5
BST	29	96	6
SI_	29	96	6	96	36	3
TAP	29	144	7
BRK	29	168	7
TAP	29	216	0
BRK	29	240	0
TAP	29	288	1
TAP	29	288	6
TAP	29	312	2
TAP	29	312	5
TAP	29	336	3
TAP	29	336	4
TAP	30	0	3
TAP	30	24	4
TAP	30	48	2
TAP	30	96	1
TAP	30	96	3
TAP	30	144	0
HLD	30	168	0	48
TAP	30	216	2
TAP	30	240	1
TAP	30	264	3
BRK	30	288	2
TAP	30	312	4
TAP	30	336	3
TAP	30	360	5
TAP	31	0	4
TAP	31	24	6
TAP	31	48	5
TAP	31	96	4
TAP	31	96	6
TAP	31	144	7
HLD	31	168	7	48
TAP	31	216	3
BRK	31	240	5
TAP	31	264	3
BRK	31	288	5
TAP	31	336	2
TAP	31	336	6
STR	32	0	1
SCR	32	0	1	96	24	3
TAP	32	24	3
TAP	32	48	0
BRK	32	96	1
TAP	32	96	4
TAP	32	144	5
STR	32	192	6
SCL	32	192	6	96	24	4
TAP	32	216	4
TAP	32	240	7
TAP	32	288	3
BRK	32	288	6
TAP	32	336	2
TAP	33	0	2
TAP	33	0	3
BRK	33	48	7
TAP	33	96	4
TAP	33	96	5
BRK	33	144	0
HLD	33	192	1	48
HLD	33	192	7	48
HLD	33	264	2	48
HLD	33	264	6	48
TAP	33	336	3
TAP	33	336	5
BRK	34	0	0
BRK	34	0	4
TAP	34	96	5
TAP	34	144	7
TAP	34	192	5
TAP	34	240	7
TAP	34	288	5
HLD	34	288	7	96
TAP	35	0	5
TAP	35	48	6
TAP	35	96	5
TAP	35	144	6
TAP	35	192	5
TAP	35	240	6
TAP	35	288	5
HLD	35	288	6	96
TAP	36	0	5
TAP	36	48	7
TAP	36	144	7
TAP	36	192	4
TAP	36	240	5
TAP	36	288	6
TAP	36	336	7
HLD	37	0	0	48
HLD	37	48	1	48
HLD	37	96	2	32
HLD	37	128	3	32
HLD	37	160	4	32
TAP	37	192	5
TAP	37	216	6
TAP	37	240	7
TAP	37	264	0
BST	37	288	1
SI_	37	288	1	96	32	7
STR	38	0	1
SI_	38	0	1	96	32	5
TAP	38	0	6
STR	38	96	1
SCR	38	96	1	96	32	3
TAP	38	96	6
TAP	38	192	1
TAP	38	192	6
TAP	38	256	6
TAP	38	288	4
STR	38	288	6
SI_	38	288	6	96	32	0
TAP	39	0	1
STR	39	0	6
SI_	39	0	6	96	32	2
TAP	39	96	1
STR	39	96	6
SCL	39	96	6	96	32	4
TAP	39	192	1
TAP	39	192	6
TAP	39	256	1
STR	39	288	1
SI_	39	288	1	96	32	7
TAP	39	288	3
STR	40	0	1
SI_	40	0	1	96	32	5
TAP	40	0	6
STR	40	96	1
SCR	40	96	1	96	32	3
TAP	40	96	6
TAP	40	192	1
TAP	40	192	6
TAP	40	256	6
TAP	40	288	4
TAP	40	288	6
HLD	41	0	3	48
TAP	41	48	4
TAP	41	72	4
HLD	41	96	2	32
HLD	41	128	3	32
HLD	41	160	4	32
HLD	41	192	5	96
BRK	41	288	2
STR	42	0	3
SI_	42	0	3	96	36	0
STR	42	0	7
SI_	42	0	7	96	36	4
BRK	42	96	3
BRK	42	96	7
TAP	42	192	2
TAP	42	192	6
TAP	42	240	5
TAP	42	264	4
TAP	42	288	6
TAP	42	312	3
TAP	42	336	7
TAP	42	360	2
TAP	43	0	0
TAP	43	24	1
TAP	43	48	4
TAP	43	72	3
TAP	43	96	6
TAP	43	120	7
TAP	43	144	4
TAP	43	168	3
HLD	43	192	0	48
TAP	43	240	1
TAP	43	256	2
TAP	43	272	3
TAP	43	288	4
TAP	43	336	2
TAP	43	336	6
TAP	44	0	0
TAP	44	0	5
TAP	44	48	6
TAP	44	72	6
TAP	44	96	7
TAP	44	144	0
TAP	44	144	2
TAP	44	192	1
TAP	44	216	1
TAP	44	240	0
TAP	44	288	7
TAP	44	312	7
TAP	44	336	0
HLD	45	0	6	48
HLD	45	48	4	48
HLD	45	96	3	48
TAP	45	144	1
TAP	45	168	1
STR	45	216	0
SI_	45	216	0	96	36	4
TAP	45	216	1
TAP	45	264	6
TAP	45	264	7
BRK	45	312	0
BRK	45	312	1
TAP	46	0	2
TAP	46	0	6
TAP	46	48	5
TAP	46	72	4
TAP	46	120	3
TAP	46	120	6
TAP	46	168	1
TAP	46	168	4
TAP	46	216	3
TAP	46	240	2
TAP	46	264	3
TAP	46	288	1
TAP	46	312	4
TAP	46	336	0
TAP	46	360	5
TAP	47	0	7
TAP	47	24	6
TAP	47	48	3
TAP	47	72	4
TAP	47	96	1
TAP	47	120	0
TAP	47	144	3
TAP	47	168	4
HLD	47	192	7	48
TAP	47	240	6
TAP	47	256	5
TAP	47	272	4
TAP	47	288	3
TAP	47	336	1
TAP	47	336	5
BRK	48	0	0
BRK	48	0	2
TAP	48	48	1
TAP	48	72	1
TAP	48	96	1
BRK	48	144	5
BRK	48	144	7
TAP	48	192	6
TAP	48	216	6
TAP	48	240	6
BRK	48	288	3
TAP	48	312	3
TAP	48	336	4
BRK	49	0	2
BRK	49	0	5
TAP	49	12	3
TAP	49	12	4
BRK	49	72	1
BRK	49	72	6
TAP	49	84	2
TAP	49	84	5
TAP	49	96	3
TAP	49	96	4
BST	49	144	0
SUR	49	144	0	96	84	7
BST	49	144	7
SUL	49	144	7	96	84	0
TAP	49	156	1
TAP	49	156	6
TAP	49	168	2
TAP	49	168	5
TAP	49	180	3
TAP	49	180	4
TAP	50	0	1
TAP	50	0	6
HLD	54	0	5	384
TAP	54	48	4
TAP	54	96	4
TAP	54	168	3
HLD	54	240	3	48
TAP	54	336	2
HLD	55	0	2	384
TAP	55	48	4
TAP	55	96	4
TAP	55	168	5
HLD	55	240	5	48
TAP	55	336	6
HLD	56	0	6	384
TAP	56	48	3
TAP	56	96	3
TAP	56	168	2
HLD	56	240	2	48
TAP	56	336	1
STR	57	0	1
SUL	57	0	1	96	192	0
STR	57	96	6
SUR	57	96	6	96	96	7
BRK	58	0	1
BRK	58	0	6
TAP	58	24	2
TAP	58	48	3
TAP	58	96	4
TAP	58	96	5
TAP	58	144	7
HLD	58	168	7	48
TAP	58	216	4
TAP	58	240	6
TAP	58	264	3
BRK	58	288	5
TAP	58	312	2
TAP	58	336	4
TAP	58	360	1
TAP	59	0	3
TAP	59	24	0
TAP	59	48	2
TAP	59	96	1
TAP	59	96	3
TAP	59	144	0
HLD	59	168	0	48
TAP	59	216	4
BRK	59	240	2
TAP	59	264	3
BRK	59	288	1
TAP	59	336	0
TAP	59	336	5
STR	60	0	6
SCL	60	0	6	96	24	4
TAP	60	24	4
TAP	60	48	7
TAP	60	96	3
BRK	60	96	6
TAP	60	144	2
STR	60	192	1
SCR	60	192	1	96	24	3
TAP	60	216	3
TAP	60	240	0
BRK	60	288	1
TAP	60	288	4
TAP	60	336	5
TAP	61	0	4
TAP	61	0	5
BRK	61	48	0
TAP	61	96	2
TAP	61	96	3
BRK	61	144	7
HLD	61	192	0	48
HLD	61	192	6	48
HLD	61	264	1	48
HLD	61	264	7	48
TAP	61	336	3
TAP	61	336	5
BRK	62	0	2
BRK	62	0	6
TAP	62	24	5
TAP	62	48	4
TAP	62	96	2
TAP	62	96	3
TAP	62	144	0
HLD	62	168	0	48
TAP	62	216	3
TAP	62	240	1
TAP	62	264	4
BRK	62	288	2
TAP	62	312	5
TAP	62	336	3
TAP	62	360	6
TAP	63	0	4
TAP	63	24	7
TAP	63	48	5
TAP	63	96	4
TAP	63	96	6
TAP	63	144	7
HLD	63	168	7	48
TAP	63	216	3
BRK	63	240	5
TAP	63	264	4
BRK	63	288	6
TAP	63	336	2
TAP	63	336	7
STR	64	0	1
SCR	64	0	1	96	24	3
TAP	64	24	3
TAP	64	48	0
BRK	64	96	1
TAP	64	96	4
TAP	64	144	5
STR	64	192	6
SCL	64	192	6	96	24	4
TAP	64	216	4
TAP	64	240	7
TAP	64	288	3
BRK	64	288	6
TAP	64	336	2
STR	65	0	1
SXR	65	0	1	96	168	6
STR	65	96	5
SCL	65	96	5	96	72	2
BRK	66	0	1
BRK	66	0	7
TAP	66	192	4
TAP	66	240	3
TAP	66	288	2
TAP	66	336	1
BRK	67	0	0
BRK	67	0	7
HLD	67	96	3	96
HLD	67	192	4	96
HLD	67	288	5	96
BRK	68	0	7
STR	68	96	0
SUR	68	96	0	96	108	1
TAP	68	144	0
BRK	69	0	6
STR	69	96	5
SUL	69	96	5	96	108	4
TAP	69	144	5
TAP	70	0	2
BRK	70	0	5
TAP	70	48	4
TAP	70	96	2
TAP	70	96	5
TAP	70	144	3
TAP	70	192	2
TAP	70	192	5
TAP	70	240	4
TAP	70	288	2
TAP	70	288	5
TAP	70	336	3
TAP	71	0	3
BRK	71	0	4
TAP	71	48	2
TAP	71	96	3
TAP	71	96	4
TAP	71	144	5
TAP	71	192	3
TAP	71	192	4
TAP	71	240	2
TAP	71	288	3
TAP	71	288	4
TAP	71	336	5
BRK	72	0	3
HLD	72	0	6	48
HLD	72	48	7	48
HLD	72	96	0	48
HLD	72	144	1	48
BRK	72	192	2
TAP	72	240	3
TAP	72	240	4
TAP	72	288	5
TAP	72	288	6
TAP	72	336	0
TAP	72	336	7
BRK	73	0	1
TAP	73	24	6
TAP	73	48	1
TAP	73	72	6
TAP	73	96	0
TAP	73	108	1
TAP	73	120	2
TAP	73	132	3
TAP	73	144	4
TAP	73	156	5
TAP	73	168	6
TAP	73	180	7
BST	73	192	0
SF_	73	192	0	96	36	4
TAP	73	288	0
BRK	74	0	2
BRK	74	0	6
TAP	74	48	5
TAP	74	72	4
TAP	74	120	6
HLD	74	144	7	48
TAP	74	192	5
TAP	74	216	5
TAP	74	240	0
TAP	74	256	1
TAP	74	272	2
TAP	74	288	4
TAP	74	312	4
TAP	74	336	2
TAP	74	360	3
TAP	75	0	1
TAP	75	0	4
TAP	75	48	2
TAP	75	72	3
TAP	75	120	1
HLD	75	144	0	48
TAP	75	192	2
TAP	75	216	2
TAP	75	240	7
TAP	75	256	6
TAP	75	272	5
TAP	75	288	3
TAP	75	312	3
TAP	75	336	5
TAP	75	360	4
TAP	76	0	3
TAP	76	0	6
HLD	76	48	2	48
HLD	76	48	4	48
HLD	76	120	3	48
HLD	76	120	5	48
HLD	76	192	0	48
HLD	76	192	1	48
HLD	76	264	5	48
HLD	76	264	6	48
TAP	76	336	0
TAP	76	336	7
TAP	77	0	6
TAP	77	16	5
TAP	77	32	4
TAP	77	48	0
TAP	77	48	3
TAP	77	96	1
TAP	77	112	2
TAP	77	128	3
TAP	77	144	4
TAP	77	144	7
TAP	77	192	6
TAP	77	216	3
TAP	77	240	4
TAP	77	264	1
TAP	77	288	5
TAP	77	312	2
TAP	77	336	6
TAP	77	360	1
BST	78	0	0
SSL	78	0	0	96	36	4
BST	78	0	7
SSR	78	0	7	96	36	3
BRK	78	32	0
BRK	78	32	7
BRK	78	64	0
BRK	78	64	7
BRK	78	96	0
BRK	78	96	7
HLD	78	192	1	48
TAP	78	240	4
HLD	78	264	2	48
TAP	78	312	5
TAP	78	336	3
TAP	78	360	3
TAP	79	0	7
TAP	79	24	7
TAP	79	48	6
TAP	79	72	6
TAP	79	96	5
TAP	79	120	5
TAP	79	144	2
TAP	79	168	2
TAP	79	192	1
TAP	79	216	1
TAP	79	240	0
TAP	79	264	0
TAP	79	288	6
TAP	79	300	5
TAP	79	312	4
TAP	79	324	3
TAP	79	336	2
TAP	79	348	1
TAP	79	360	0
TAP	79	372	7
BST	80	0	6
SUL	80	0	6	96	72	1
TAP	80	48	0
TAP	80	96	0
TAP	80	144	0
HLD	80	192	0	48
HLD	80	264	2	48
HLD	80	264	3	48
HLD	80	336	4	48
HLD	80	336	5	48
TAP	82	0	2
STR	82	0	3
SI_	82	0	3	96	36	0
BRK	82	96	3
BRK	82	96	7
TAP	82	112	6
TAP	82	128	5
TAP	82	144	4
TAP	82	240	1
TAP	82	240	3
TAP	82	288	4
TAP	82	288	5
TAP	82	336	2
TAP	82	336	3
HLD	83	0	5	96
TAP	83	0	7
TAP	83	96	6
TAP	83	112	7
TAP	83	128	0
TAP	83	144	1
TAP	83	240	2
TAP	83	240	3
TAP	83	288	0
TAP	83	288	1
TAP	83	336	6
TAP	83	336	7
STR	84	0	4
SI_	84	0	4	96	36	7
TAP	84	0	5
BRK	84	96	0
BRK	84	96	4
TAP	84	112	1
TAP	84	128	2
TAP	84	144	3
TAP	84	240	4
TAP	84	240	6
TAP	84	288	2
TAP	84	288	3
TAP	84	336	4
TAP	84	336	5
TAP	85	0	0
HLD	85	0	2	96
TAP	85	96	5
TAP	85	144	1
TAP	85	144	6
TAP	85	168	1
TAP	85	168	6
HLD	85	192	1	48
HLD	85	192	6	48
HLD	85	264	5	48
HLD	85	264	7	48
TAP	85	336	0
TAP	85	336	2
BST	86	0	0
SUR	86	0	0	96	288	2
BST	86	0	2
SCR	86	0	2	96	288	1

T_REC_TAP	598
T_REC_BRK	87
T_REC_XTP	0
T_REC_HLD	105
T_REC_XHO	0
T_REC_STR	48
T_REC_BST	13
T_REC_XST	0
T_REC_TTP	0
T_REC_THO	0
T_REC_SLD	61
T_REC_ALL	912
T_NUM_TAP	646
T_NUM_BRK	100
T_NUM_HLD	105
T_NUM_SLD	61
T_NUM_ALL	912
T_JUDGE_TAP	746
T_JUDGE_HLD	144
T_JUDGE_SLD	61
T_JUDGE_ALL	951
TTM_EACHPAIRS	193
TTM_SCR_TAP	323000
TTM_SCR_BRK	260000
TTM_SCR_HLD	105000
TTM_SCR_SLD	91500
TTM_SCR_ALL	779500
TTM_SCR_S	746450
TTM_SCR_SS	769500
TTM_RAT_ACV	10129

