VERSION	0.00.00	1.03.00
FES_MODE	0
BPM_DEF	165.000	165.000	165.000	165.000
MET_DEF	4	4
RESOLUTION	384
CLK_DEF	384
COMPATIBLE_CODE	MA2

BPM	0	0	165.000
MET	0	0	4	4

TAP	2	0	5
STR	2	0	7
SI_	2	0	7	96	48	2
BRK	2	96	7
TAP	2	144	5
TAP	2	240	1
TAP	2	240	3
TAP	2	288	2
TAP	2	288	4
TAP	2	336	3
TAP	2	336	5
TAP	3	0	4
TAP	3	0	6
TAP	3	96	2
TAP	3	144	1
TAP	3	144	3
TAP	3	240	5
TAP	3	240	7
TAP	3	288	0
TAP	3	288	6
TAP	3	336	1
TAP	3	336	7
STR	4	0	0
SI_	4	0	0	96	48	5
TAP	4	0	2
BRK	4	96	0
TAP	4	144	2
TAP	4	240	4
TAP	4	240	6
TAP	4	288	3
TAP	4	288	5
TAP	4	336	2
TAP	4	336	4
TAP	5	0	1
TAP	5	0	3
TAP	5	96	5
TAP	5	144	0
TAP	5	168	7
TAP	5	192	0
TAP	5	264	5
TAP	5	264	7
TAP	5	336	1
TAP	5	336	3
TAP	6	0	5
STR	6	0	7
SI_	6	0	7	96	48	2
BRK	6	96	7
TAP	6	144	5
TAP	6	240	5
TAP	6	240	7
TAP	6	288	0
TAP	6	288	6
TAP	6	336	1
TAP	6	336	7
STR	7	0	0
SI_	7	0	0	96	48	5
TAP	7	0	2
BRK	7	96	0
TAP	7	144	2
TAP	7	240	0
TAP	7	240	2
TAP	7	288	1
TAP	7	288	7
TAP	7	336	0
TAP	7	336	6
TAP	8	0	5
STR	8	0	7
SI_	8	0	7	96	48	2
BRK	8	96	7
TAP	8	144	5
TAP	8	240	5
TAP	8	240	7
TAP	8	288	0
TAP	8	288	6
TAP	8	336	1
TAP	8	336	7
TAP	9	0	0
TAP	9	0	2
TAP	9	48	1
TAP	9	48	7
TAP	9	96	0
TAP	9	96	6
TAP	9	144	5
TAP	9	144	7
TAP	9	192	0
TAP	9	192	6
TAP	9	204	1
TAP	9	216	2
TAP	9	228	3
TAP	9	240	4
TAP	9	252	5
TAP	9	264	6
TAP	9	276	7
BRK	9	288	0
HLD	10	0	5	336
TAP	10	48	0
TAP	10	96	0
TAP	10	192	6
TAP	10	264	4
HLD	10	336	2	384
TAP	11	48	7
TAP	11	96	7
TAP	11	192	1
TAP	11	264	3
HLD	11	336	6	384
TAP	12	48	3
TAP	12	96	3
TAP	12	192	5
TAP	12	264	7
HLD	12	336	1	384
TAP	13	48	4
TAP	13	96	4
TAP	13	192	2
TAP	13	264	0
TAP	13	336	7
STR	14	0	4
SI_	14	0	4	96	48	1
STR	14	0	5
SI_	14	0	5	96	48	0
TAP	14	48	4
TAP	14	48	5
TAP	14	192	2
TAP	14	192	7
TAP	14	240	1
TAP	14	264	0
TAP	14	312	6
TAP	14	336	7
STR	15	0	2
SI_	15	0	2	96	48	7
STR	15	0	3
SI_	15	0	3	96	48	6
TAP	15	48	2
TAP	15	48	3
TAP	15	192	0
TAP	15	192	5
TAP	15	240	6
TAP	15	264	7
TAP	15	312	1
TAP	15	336	0
STR	16	0	5
SI_	16	0	5	96	48	0
TAP	16	48	5
STR	16	96	2
SI_	16	96	2	96	48	7
TAP	16	144	2
STR	16	192	6
SI_	16	192	6	96	48	3
TAP	16	240	6
STR	16	288	1
SI_	16	288	1	96	48	4
TAP	16	336	1
TAP	17	0	5
TAP	17	48	5
TAP	17	96	2
TAP	17	120	2
TAP	17	168	7
TAP	17	192	0
TAP	17	216	6
TAP	17	240	1
TAP	17	264	5
BRK	17	288	2
TAP	18	0	0
TAP	18	0	5
TAP	18	48	1
TAP	18	48	6
TAP	18	96	2
TAP	18	96	7
TAP	18	192	1
TAP	18	240	1
TAP	18	264	0
TAP	18	312	0
TAP	18	336	3
TAP	19	0	2
TAP	19	0	7
TAP	19	48	1
TAP	19	48	6
TAP	19	96	0
TAP	19	96	5
TAP	19	192	6
TAP	19	240	6
TAP	19	264	7
TAP	19	312	7
TAP	19	336	4
TAP	20	0	0
TAP	20	0	5
TAP	20	48	1
TAP	20	48	6
TAP	20	96	2
TAP	20	96	7
TAP	20	192	1
TAP	20	240	1
TAP	20	264	0
TAP	20	312	0
TAP	20	336	3
STR	21	0	1
SI_	21	0	1	96	48	4
STR	21	0	6
SI_	21	0	6	96	48	3
TAP	21	48	0
TAP	21	48	7
BRK	21	96	1
BRK	21	96	6
TAP	21	192	0
TAP	21	192	1
TAP	21	216	0
TAP	21	216	1
TAP	21	264	6
TAP	21	264	7
TAP	21	288	6
TAP	21	288	7
BRK	21	336	3
BRK	21	336	4
TAP	22	0	0
TAP	22	0	5
TAP	22	48	1
TAP	22	48	6
TAP	22	96	2
TAP	22	96	7
TAP	22	144	4
TAP	22	144	5
TAP	22	192	1
TAP	22	240	1
TAP	22	264	0
TAP	22	312	0
TAP	22	336	3
TAP	23	0	2
TAP	23	0	7
TAP	23	48	1
TAP	23	48	6
TAP	23	96	0
TAP	23	96	5
TAP	23	144	2
TAP	23	144	3
TAP	23	192	6
TAP	23	240	6
TAP	23	264	7
TAP	23	312	7
TAP	23	336	4
TAP	24	0	0
TAP	24	0	5
TAP	24	48	1
TAP	24	48	6
TAP	24	96	2
TAP	24	96	7
TAP	24	144	3
TAP	24	144	4
TAP	24	192	2
TAP	24	192	7
TAP	24	240	1
TAP	24	240	6
TAP	24	288	0
TAP	24	288	5
TAP	24	336	3
TAP	24	336	4
TAP	25	0	0
TAP	25	0	1
TAP	25	48	2
TAP	25	48	3
TAP	25	96	4
TAP	25	96	5
TAP	25	144	6
TAP	25	144	7
TAP	25	192	0
TAP	25	192	2
TAP	25	216	0
TAP	25	216	2
TAP	25	264	5
TAP	25	264	7
TAP	25	288	5
TAP	25	288	7
BRK	25	336	1
BRK	25	336	6
TAP	26	0	0
TAP	26	24	7
TAP	26	48	0
TAP	26	96	1
TAP	26	96	5
TAP	26	144	6
HLD	26	168	6	48
TAP	26	216	4
TAP	26	240	5
TAP	26	264	3
TAP	26	288	4
TAP	26	312	2
TAP	26	336	3
TAP	26	360	1
TAP	27	0	7
TAP	27	24	0
TAP	27	48	7
TAP	27	96	2
TAP	27	96	6
TAP	27	144	1
HLD	27	168	1	48
TAP	27	216	3
TAP	27	240	2
TAP	27	264	4
TAP	27	288	3
TAP	27	312	5
TAP	27	336	4
TAP	27	360	6
TAP	28	0	1
BRK	28	48	3
BRK	28	48	4
TAP	28	96	2
BRK	28	144	3
BRK	28	144	4
BRK	28	192	6
BRK	28	192	7
TAP	28	240	0
TAP	28	240	1
BRK	28	264	0
BRK	28	264	1
BRK	28	336	3
BRK	28	336	4
TAP	29	24	6
TAP	29	24	7
BRK	29	48	6
BRK	29	48	7
BRK	29	96	3
BRK	29	96	4
TAP	29	144	2
TAP	29	144	6
BRK	29	168	2
BRK	29	168	6
TAP	29	216	1
TAP	29	216	5
BRK	29	240	1
BRK	29	240	5
BRK	29	288	0
BRK	29	288	7
TAP	29	312	1
TAP	29	312	6
TAP	29	336	2
TAP	29	336	5
TAP	30	0	3
TAP	30	24	4
TAP	30	48	3
TAP	30	96	2
TAP	30	96	6
TAP	30	144	5
HLD	30	168	5	48
TAP	30	216	7
TAP	30	240	6
TAP	30	264	0
TAP	30	288	7
TAP	30	312	1
TAP	30	336	0
TAP	30	360	2
TAP	31	0	4
TAP	31	24	3
TAP	31	48	4
TAP	31	96	1
TAP	31	96	5
TAP	31	144	2
HLD	31	168	2	48
TAP	31	216	0
TAP	31	240	1
TAP	31	264	7
TAP	31	288	0
TAP	31	312	6
TAP	31	336	7
TAP	31	360	5
TAP	32	0	3
TAP	32	24	4
TAP	32	48	3
TAP	32	96	2
TAP	32	96	6
TAP	32	144	5
HLD	32	168	5	48
TAP	32	216	7
TAP	32	240	6
TAP	32	264	0
TAP	32	288	7
TAP	32	312	1
TAP	32	336	0
TAP	32	360	2
TAP	33	0	4
TAP	33	24	4
TAP	33	48	3
TAP	33	72	3
TAP	33	96	2
TAP	33	120	2
TAP	33	144	1
TAP	33	168	1
TAP	33	192	0
TAP	33	216	0
TAP	33	240	7
TAP	33	264	7
TAP	33	288	6
TAP	33	312	6
TAP	33	336	5
TAP	33	360	5
BRK	34	0	4
TAP	34	48	1
TAP	34	96	4
TAP	34	144	1
STR	34	192	4
SCR	34	192	4	96	48	7
TAP	34	240	1
TAP	34	288	4
TAP	35	0	3
TAP	35	48	6
TAP	35	96	3
TAP	35	144	6
STR	35	192	3
SCL	35	192	3	96	48	0
TAP	35	240	6
TAP	35	288	3
HLD	36	0	7	48
HLD	36	48	6	48
HLD	36	96	5	48
HLD	36	144	4	48
HLD	36	192	3	48
HLD	36	240	2	48
HLD	36	288	1	48
HLD	36	336	0	48
HLD	37	0	7	48
HLD	37	48	5	48
HLD	37	96	3	48
HLD	37	144	1	48
TAP	37	192	7
TAP	37	204	6
TAP	37	216	5
TAP	37	228	4
TAP	37	240	3
TAP	37	252	2
TAP	37	264	1
TAP	37	276	0
BRK	37	288	7
HLD	38	0	1	72
TAP	38	72	0
HLD	38	96	0	72
TAP	38	168	3
HLD	38	192	3	72
TAP	38	264	4
HLD	38	288	4	72
TAP	38	360	7
HLD	39	0	7	72
TAP	39	72	6
HLD	39	96	6	72
TAP	39	168	3
HLD	39	192	3	72
TAP	39	264	4
TAP	39	288	3
TAP	39	288	4
HLD	40	0	6	72
TAP	40	72	7
HLD	40	96	7	72
TAP	40	168	4
HLD	40	192	4	72
TAP	40	264	3
HLD	40	288	3	72
TAP	40	360	0
HLD	41	0	0	72
TAP	41	72	1
HLD	41	96	1	72
TAP	41	168	4
HLD	41	192	4	72
TAP	41	264	3
TAP	41	288	3
TAP	41	288	4
STR	42	0	1
SI_	42	0	1	96	48	4
STR	42	0	6
SI_	42	0	6	96	48	3
TAP	42	48	0
TAP	42	48	7
BRK	42	96	1
BRK	42	96	6
TAP	42	192	6
TAP	42	216	7
TAP	42	240	6
TAP	42	288	2
TAP	42	312	3
TAP	42	336	2
TAP	42	360	3
TAP	43	0	1
TAP	43	24	0
TAP	43	48	2
TAP	43	72	7
TAP	43	96	3
TAP	43	120	6
TAP	43	144	4
TAP	43	168	5
TAP	43	192	3
TAP	43	240	4
TAP	43	240	6
TAP	43	288	0
TAP	43	288	7
TAP	43	336	1
TAP	43	336	3
TAP	44	0	2
TAP	44	0	5
TAP	44	48	1
TAP	44	72	3
TAP	44	96	1
TAP	44	144	2
TAP	44	144	5
TAP	44	192	6
TAP	44	216	4
TAP	44	240	6
TAP	44	288	2
TAP	44	288	5
TAP	44	336	3
TAP	44	336	4
TAP	45	0	2
TAP	45	0	7
TAP	45	48	1
TAP	45	48	6
TAP	45	96	0
TAP	45	96	5
TAP	45	144	6
TAP	45	168	7
TAP	45	216	1
TAP	45	240	0
TAP	45	288	4
TAP	45	312	3
TAP	45	336	4
BRK	46	0	1
BRK	46	0	6
TAP	46	48	0
TAP	46	72	7
TAP	46	96	2
TAP	46	120	5
TAP	46	144	3
TAP	46	192	1
TAP	46	216	0
TAP	46	240	1
TAP	46	288	5
TAP	46	312	4
TAP	46	336	5
TAP	46	360	4
TAP	47	0	6
TAP	47	24	7
TAP	47	48	5
TAP	47	72	0
TAP	47	96	4
TAP	47	120	1
TAP	47	144	3
TAP	47	168	2
TAP	47	192	4
TAP	47	240	2
TAP	47	240	3
TAP	47	288	0
TAP	47	288	7
TAP	47	336	4
TAP	47	336	5
BRK	48	0	1
BRK	48	0	6
TAP	48	48	5
TAP	48	72	4
TAP	48	96	5
BRK	48	144	0
BRK	48	144	7
TAP	48	192	2
TAP	48	216	3
TAP	48	240	2
BRK	48	288	1
BRK	48	288	6
TAP	48	336	3
TAP	48	336	4
BRK	49	0	0
BRK	49	0	7
BST	49	72	1
SXL	49	72	1	96	120	3
BST	49	72	6
SXR	49	72	6	96	120	4
BRK	49	144	2
BRK	49	144	5
HLD	50	0	2	336
TAP	50	48	4
TAP	50	96	4
TAP	50	192	3
TAP	50	264	1
HLD	50	336	0	384
TAP	51	48	2
TAP	51	96	2
TAP	51	192	1
TAP	51	264	7
HLD	51	336	6	384
TAP	52	48	0
TAP	52	96	0
TAP	52	192	7
TAP	52	264	5
HLD	52	336	4	480
TAP	53	48	6
TAP	53	96	6
TAP	53	192	5
TAP	53	264	3
TAP	53	336	2
STR	54	48	2
SCL	54	48	2	96	240	5
TAP	54	96	2
TAP	54	192	3
TAP	54	264	2
TAP	54	336	1
STR	55	48	0
SCL	55	48	0	96	240	3
TAP	55	96	0
TAP	55	192	1
TAP	55	264	0
TAP	55	336	7
STR	56	48	6
SCL	56	48	6	96	240	1
TAP	56	96	6
TAP	56	192	7
TAP	56	264	6
TAP	56	336	5
STR	57	48	4
SI_	57	48	4	96	48	0
TAP	57	96	4
TAP	57	192	7
BRK	57	288	1
BRK	57	288	6
TAP	58	0	0
TAP	58	24	7
TAP	58	48	0
TAP	58	72	7
HLD	58	96	0	48
TAP	58	144	6
HLD	58	168	6	48
TAP	58	216	4
TAP	58	240	5
TAP	58	264	3
TAP	58	288	4
TAP	58	312	2
TAP	58	336	3
TAP	58	360	1
TAP	59	0	7
TAP	59	24	0
TAP	59	48	7
TAP	59	72	0
HLD	59	96	7	48
TAP	59	144	1
HLD	59	168	1	48
TAP	59	216	3
TAP	59	240	2
TAP	59	264	4
TAP	59	288	3
TAP	59	312	5
TAP	59	336	4
TAP	59	360	6
TAP	60	0	0
TAP	60	24	7
TAP	60	48	0
TAP	60	72	7
HLD	60	96	0	48
TAP	60	144	6
HLD	60	168	6	48
TAP	60	216	4
TAP	60	240	5
TAP	60	264	3
TAP	60	288	4
TAP	60	312	2
TAP	60	336	3
TAP	60	360	1
TAP	61	0	7
TAP	61	24	0
TAP	61	48	6
TAP	61	72	1
TAP	61	96	5
TAP	61	120	2
TAP	61	144	4
STR	61	192	0
SI_	61	192	0	96	48	5
STR	61	192	7
SI_	61	192	7	96	48	2
TAP	61	240	1
TAP	61	240	6
BRK	61	288	0
BRK	61	288	7
TAP	62	0	4
TAP	62	24	3
TAP	62	48	4
TAP	62	72	3
HLD	62	96	4	48
TAP	62	144	2
HLD	62	168	2	48
TAP	62	216	0
TAP	62	240	1
TAP	62	264	7
TAP	62	288	0
TAP	62	312	6
TAP	62	336	7
TAP	62	360	5
TAP	63	0	3
TAP	63	24	4
TAP	63	48	3
TAP	63	72	4
HLD	63	96	3	48
TAP	63	144	5
HLD	63	168	5	48
TAP	63	216	7
TAP	63	240	6
TAP	63	264	0
TAP	63	288	7
TAP	63	312	1
TAP	63	336	0
TAP	63	360	2
TAP	64	0	4
TAP	64	24	3
TAP	64	48	4
TAP	64	72	3
HLD	64	96	4	48
TAP	64	144	2
HLD	64	168	2	48
TAP	64	216	0
TAP	64	240	1
TAP	64	264	7
TAP	64	288	0
TAP	64	312	6
TAP	64	336	7
TAP	64	360	5
TAP	65	0	3
TAP	65	48	4
TAP	65	48	5
TAP	65	96	2
TAP	65	96	3
TAP	65	144	6
TAP	65	168	6
TAP	65	216	1
TAP	65	240	1
TAP	65	288	0
TAP	65	288	2
TAP	65	336	5
TAP	65	336	7
HLD	66	0	1	336
TAP	66	48	4
TAP	66	96	4
TAP	66	192	2
TAP	66	264	0
HLD	66	336	6	384
TAP	67	48	3
TAP	67	96	3
TAP	67	192	5
TAP	67	264	7
HLD	67	336	2	384
TAP	68	48	7
TAP	68	96	7
TAP	68	192	1
TAP	68	264	3
HLD	68	336	5	384
TAP	69	48	0
TAP	69	96	0
TAP	69	192	6
TAP	69	264	4
TAP	69	336	3
STR	70	0	1
SI_	70	0	1	96	48	4
TAP	70	48	7
TAP	70	96	0
TAP	70	96	1
TAP	70	192	3
TAP	70	192	6
TAP	70	240	5
TAP	70	264	4
TAP	70	312	2
TAP	70	336	3
STR	71	0	6
SI_	71	0	6	96	48	3
TAP	71	48	0
TAP	71	96	6
TAP	71	96	7
TAP	71	192	1
TAP	71	192	4
TAP	71	240	2
TAP	71	264	3
TAP	71	312	5
TAP	71	336	4
STR	72	0	1
SI_	72	0	1	96	48	4
TAP	72	48	1
STR	72	96	6
SI_	72	96	6	96	48	3
TAP	72	144	6
STR	72	192	2
SI_	72	192	2	96	48	7
TAP	72	240	2
TAP	72	288	5
TAP	72	336	5
TAP	73	0	0
TAP	73	24	7
TAP	73	48	0
TAP	73	72	7
TAP	73	96	1
TAP	73	120	6
TAP	73	144	1
TAP	73	168	6
STR	73	192	0
SI_	73	192	0	96	48	4
STR	73	192	7
SI_	73	192	7	96	48	3
BRK	73	288	0
BRK	73	288	7
STR	74	0	6
SI_	74	0	6	96	48	3
TAP	74	0	7
TAP	74	48	0
TAP	74	48	5
TAP	74	96	6
TAP	74	96	7
TAP	74	144	0
TAP	74	192	1
TAP	74	216	3
TAP	74	240	2
TAP	74	264	4
TAP	74	288	3
TAP	74	312	5
TAP	74	336	4
TAP	75	0	0
STR	75	0	1
SI_	75	0	1	96	48	4
TAP	75	48	2
TAP	75	48	7
TAP	75	96	0
TAP	75	96	1
TAP	75	144	7
TAP	75	192	6
TAP	75	216	4
TAP	75	240	5
TAP	75	264	3
TAP	75	288	4
TAP	75	312	2
TAP	75	336	3
TAP	75	360	1
TAP	76	0	6
TAP	76	48	3
TAP	76	48	4
TAP	76	96	2
TAP	76	120	2
TAP	76	120	3
TAP	76	168	5
TAP	76	192	4
TAP	76	192	5
TAP	76	240	1
TAP	76	264	1
TAP	76	264	3
TAP	76	312	6
TAP	76	336	4
TAP	76	336	6
TAP	77	0	1
TAP	77	48	0
TAP	77	48	2
TAP	77	96	6
TAP	77	144	5
TAP	77	144	7
TAP	77	192	0
TAP	77	216	7
TAP	77	240	1
TAP	77	264	6
TAP	77	288	2
TAP	77	312	5
TAP	77	336	3
BST	78	0	0
SI_	78	0	0	96	48	4
BST	78	0	7
SI_	78	0	7	96	48	3
BRK	78	32	0
BRK	78	32	7
BRK	78	64	0
BRK	78	64	7
BRK	78	96	0
BRK	78	96	7
STR	78	192	6
SI_	78	192	6	96	48	3
TAP	78	192	7
TAP	78	240	0
TAP	78	240	5
TAP	78	288	6
TAP	78	288	7
TAP	78	336	0
TAP	79	0	1
TAP	79	24	3
TAP	79	48	2
TAP	79	72	4
TAP	79	96	3
TAP	79	120	5
TAP	79	144	4
TAP	79	168	6
TAP	79	192	4
TAP	79	216	6
TAP	79	240	3
TAP	79	264	5
TAP	79	288	2
TAP	79	312	4
TAP	79	336	1
TAP	79	360	3
TAP	80	0	0
TAP	80	24	0
TAP	80	48	1
TAP	80	72	1
TAP	80	96	2
TAP	80	120	2
TAP	80	144	3
TAP	80	168	3
TAP	80	192	4
TAP	80	216	4
TAP	80	240	5
TAP	80	264	5
TAP	80	288	6
TAP	80	312	6
TAP	80	336	7
TAP	80	360	7
TAP	81	0	0
TAP	81	48	7
TAP	81	96	1
TAP	81	144	6
TAP	81	192	2
TAP	81	216	3
TAP	81	264	5
BRK	81	288	4
TAP	82	0	5
STR	82	0	7
SI_	82	0	7	96	48	2
BRK	82	96	7
TAP	82	144	5
TAP	82	240	1
TAP	82	240	3
TAP	82	288	2
TAP	82	288	4
TAP	82	336	3
TAP	82	336	5
TAP	83	0	4
TAP	83	0	6
TAP	83	96	2
TAP	83	144	1
TAP	83	144	3
TAP	83	240	5
TAP	83	240	7
TAP	83	288	0
TAP	83	288	6
TAP	83	336	1
TAP	83	336	7
STR	84	0	0
SI_	84	0	0	96	48	5
TAP	84	0	2
BRK	84	96	0
TAP	84	144	2
TAP	84	240	4
TAP	84	240	6
TAP	84	288	3
TAP	84	288	5
TAP	84	336	2
TAP	84	336	4
TAP	85	0	1
TAP	85	0	3
TAP	85	96	5
TAP	85	144	0
TAP	85	168	7
TAP	85	192	0
TAP	85	264	5
TAP	85	264	7
TAP	85	336	0
TAP	85	336	2
BST	86	0	5
SI_	86	0	5	96	288	0
BST	86	0	7
SI_	86	0	7	96	288	2

T_REC_TAP	753
T_REC_BRK	64
T_REC_XTP	0
T_REC_HLD	55
T_REC_XHO	0
T_REC_STR	37
T_REC_BST	6
T_REC_XST	0
T_REC_TTP	0
T_REC_THO	0
T_REC_SLD	43
T_REC_ALL	958
T_NUM_TAP	790
T_NUM_BRK	70
T_NUM_HLD	55
T_NUM_SLD	43
T_NUM_ALL	958
T_JUDGE_TAP	860
T_JUDGE_HLD	152
T_JUDGE_SLD	43
T_JUDGE_ALL	1055
TTM_EACHPAIRS	179
TTM_SCR_TAP	395000
TTM_SCR_BRK	182000
TTM_SCR_HLD	55000
TTM_SCR_SLD	64500
TTM_SCR_ALL	696500
TTM_SCR_S	668850
TTM_SCR_SS	689500
TTM_RAT_ACV	10101

