VERSION	0.00.00	1.03.00
FES_MODE	0
BPM_DEF	165.000	165.000	165.000	165.000
MET_DEF	4	4
RESOLUTION	384
CLK_DEF	384
COMPATIBLE_CODE	MA2

BPM	0	0	165.000
MET	0	0	4	4

TAP	2	0	3
TAP	2	0	4
TAP	2	96	0
TAP	2	144	1
TAP	2	144	7
TAP	2	240	6
TAP	2	288	5
TAP	2	336	4
TAP	3	0	2
TAP	3	0	3
TAP	3	96	7
TAP	3	144	0
TAP	3	144	6
TAP	3	240	1
TAP	3	288	2
TAP	3	336	3
TAP	4	0	4
TAP	4	0	5
TAP	4	96	0
TAP	4	144	1
TAP	4	144	7
TAP	4	240	6
TAP	4	288	5
TAP	4	336	4
TAP	5	0	2
TAP	5	0	3
TAP	5	96	7
TAP	5	144	6
TAP	5	192	0
TAP	5	192	5
TAP	5	264	2
TAP	5	264	7
TAP	5	336	1
TAP	5	336	6
TAP	6	0	1
TAP	6	0	6
TAP	6	96	2
TAP	6	96	3
TAP	6	144	1
TAP	6	144	4
TAP	6	240	5
TAP	6	288	6
TAP	6	336	7
TAP	7	0	0
TAP	7	0	1
TAP	7	96	4
TAP	7	96	5
TAP	7	144	3
TAP	7	144	6
TAP	7	240	2
TAP	7	288	1
TAP	7	336	0
TAP	8	0	6
TAP	8	0	7
TAP	8	96	2
TAP	8	96	3
TAP	8	144	1
TAP	8	144	4
TAP	8	240	5
TAP	8	288	6
TAP	8	336	7
TAP	9	0	0
TAP	9	48	0
TAP	9	96	7
TAP	9	144	7
TAP	9	192	0
TAP	9	216	7
TAP	9	240	0
TAP	9	264	7
TAP	9	288	0
BRK	10	0	1
BRK	10	0	6
TAP	10	240	2
TAP	10	288	3
HLD	10	336	4	144
HLD	11	96	5	192
STR	11	288	6
SLL	11	288	6	96	96	2
HLD	12	0	1	144
HLD	12	144	0	144
STR	12	288	1
SLR	12	288	1	96	96	5
HLD	13	0	6	144
HLD	13	144	7	144
TAP	13	288	0
TAP	14	0	1
TAP	14	48	2
TAP	14	96	3
TAP	14	96	4
TAP	14	192	6
TAP	14	192	7
TAP	14	264	2
TAP	14	264	3
TAP	14	336	0
TAP	14	336	5
TAP	15	0	6
TAP	15	48	5
TAP	15	96	3
TAP	15	96	4
TAP	15	192	0
TAP	15	192	1
TAP	15	264	4
TAP	15	264	5
TAP	15	336	2
TAP	15	336	7
TAP	16	0	1
TAP	16	48	2
TAP	16	96	3
TAP	16	96	4
TAP	16	192	0
TAP	16	192	7
TAP	16	264	3
TAP	16	264	4
TAP	16	336	1
TAP	16	336	6
STR	17	0	0
SI_	17	0	0	96	48	4
STR	17	144	7
SCL	17	144	7	96	72	5
SCR	17	144	7	96	72	2
TAP	18	0	2
TAP	18	48	1
TAP	18	96	0
TAP	18	96	7
TAP	18	192	4
TAP	18	192	5
TAP	18	264	0
TAP	18	264	1
TAP	18	336	3
TAP	18	336	6
TAP	19	0	5
TAP	19	48	6
TAP	19	96	0
TAP	19	96	7
TAP	19	192	2
TAP	19	192	3
TAP	19	264	6
TAP	19	264	7
TAP	19	336	1
TAP	19	336	4
TAP	20	0	2
TAP	20	48	1
TAP	20	96	0
TAP	20	96	7
TAP	20	192	3
TAP	20	192	4
TAP	20	264	0
TAP	20	264	7
STR	20	336	1
SLR	20	336	1	96	96	0
STR	20	336	6
SLL	20	336	6	96	96	7
TAP	21	192	1
TAP	21	216	0
TAP	21	264	6
TAP	21	288	7
TAP	21	336	0
TAP	21	360	7
TAP	22	0	0
TAP	22	48	1
TAP	22	96	2
TAP	22	96	3
TAP	22	192	6
TAP	22	192	7
TAP	22	264	1
TAP	22	264	4
TAP	22	336	3
TAP	22	336	6
TAP	23	0	7
TAP	23	48	6
TAP	23	96	4
TAP	23	96	5
TAP	23	192	0
TAP	23	192	1
TAP	23	264	3
TAP	23	264	6
TAP	23	336	1
TAP	23	336	4
TAP	24	0	2
TAP	24	48	1
TAP	24	96	0
TAP	24	96	7
TAP	24	192	4
TAP	24	192	5
TAP	24	264	2
TAP	24	264	3
TAP	24	336	1
TAP	24	336	6
TAP	25	0	0
TAP	25	48	0
TAP	25	96	7
TAP	25	144	7
TAP	25	192	1
TAP	25	216	0
TAP	25	264	6
TAP	25	288	7
TAP	25	336	0
TAP	25	360	7
TAP	26	0	0
TAP	26	48	1
TAP	26	96	2
TAP	26	144	3
TAP	26	192	4
TAP	26	240	5
TAP	26	288	6
TAP	26	336	5
TAP	26	336	7
TAP	27	0	6
TAP	27	48	5
TAP	27	96	4
TAP	27	144	3
TAP	27	192	2
TAP	27	240	1
TAP	27	288	0
TAP	27	336	1
TAP	27	336	7
TAP	28	0	6
TAP	28	48	6
TAP	28	48	7
TAP	28	144	2
TAP	28	144	3
TAP	28	192	2
TAP	28	192	3
TAP	28	264	5
TAP	28	264	7
TAP	28	336	0
TAP	28	336	2
TAP	29	24	5
TAP	29	48	4
TAP	29	96	2
TAP	29	120	3
TAP	29	168	6
TAP	29	192	4
TAP	29	240	1
TAP	29	264	3
TAP	29	312	7
TAP	29	336	0
TAP	30	0	6
TAP	30	48	5
TAP	30	96	4
TAP	30	144	3
TAP	30	192	2
TAP	30	240	1
TAP	30	288	0
TAP	30	288	2
TAP	30	336	1
TAP	31	0	2
TAP	31	48	3
TAP	31	96	4
TAP	31	144	5
TAP	31	192	6
TAP	31	240	5
TAP	31	240	7
TAP	31	288	5
TAP	31	288	7
TAP	31	336	6
TAP	32	0	5
TAP	32	48	4
TAP	32	96	1
TAP	32	96	3
TAP	32	144	2
TAP	32	192	2
TAP	32	240	3
TAP	32	288	4
TAP	32	288	6
TAP	32	336	5
TAP	33	0	5
TAP	33	48	3
TAP	33	48	4
TAP	33	96	2
TAP	33	144	0
TAP	33	144	1
TAP	33	192	6
TAP	33	192	7
TAP	33	264	3
TAP	33	264	4
TAP	33	336	0
TAP	33	336	7
HLD	34	0	1	48
HLD	34	96	2	48
HLD	34	192	3	48
HLD	34	288	2	96
HLD	34	288	4	96
HLD	35	48	5	48
HLD	35	144	4	48
TAP	35	240	3
HLD	35	288	3	96
HLD	36	0	6	48
HLD	36	96	5	48
HLD	36	192	4	48
HLD	36	288	3	48
TAP	37	0	2
TAP	37	48	3
TAP	37	96	4
TAP	37	144	5
TAP	37	192	3
TAP	37	216	4
TAP	37	240	3
TAP	37	264	4
BRK	37	288	3
STR	38	0	3
SXL	38	0	3	96	48	5
SXR	38	0	3	96	48	1
TAP	38	192	3
TAP	38	264	4
HLD	38	336	5	96
TAP	39	48	7
TAP	39	96	7
TAP	39	192	6
TAP	39	264	5
TAP	39	336	4
STR	40	0	4
SXL	40	0	4	96	48	6
SXR	40	0	4	96	48	2
TAP	40	192	4
TAP	40	264	3
HLD	40	336	2	96
STR	41	48	0
SCL	41	48	0	96	144	4
SCR	41	48	0	96	144	4
TAP	41	96	0
BST	42	0	4
SV_	42	0	4	96	48	1
SV_	42	0	4	96	48	7
TAP	42	192	0
TAP	42	240	1
TAP	42	240	7
TAP	42	288	6
TAP	42	336	5
TAP	42	336	7
TAP	43	0	6
TAP	43	48	4
TAP	43	96	3
TAP	43	144	1
TAP	43	192	0
TAP	43	192	2
TAP	43	264	3
TAP	43	264	4
TAP	43	336	5
TAP	43	336	7
TAP	44	0	6
TAP	44	48	7
TAP	44	96	0
TAP	44	96	5
TAP	44	144	1
TAP	44	192	0
TAP	44	240	2
TAP	44	240	7
TAP	44	288	3
TAP	44	336	4
TAP	44	336	5
TAP	45	0	6
TAP	45	48	5
TAP	45	96	4
TAP	45	144	2
TAP	45	144	3
TAP	45	192	1
TAP	45	240	2
TAP	45	288	3
TAP	45	336	4
TAP	45	336	5
TAP	46	0	6
TAP	46	48	7
TAP	46	96	0
TAP	46	96	5
TAP	46	144	1
TAP	46	192	0
TAP	46	240	2
TAP	46	240	7
TAP	46	288	3
TAP	46	336	3
TAP	46	336	4
TAP	47	0	1
TAP	47	48	3
TAP	47	96	4
TAP	47	144	6
TAP	47	192	5
TAP	47	192	7
TAP	47	264	3
TAP	47	264	4
TAP	47	336	0
TAP	47	336	2
TAP	48	0	1
TAP	48	48	0
TAP	48	96	2
TAP	48	96	7
TAP	48	144	6
TAP	48	192	7
TAP	48	240	0
TAP	48	240	5
TAP	48	288	4
TAP	48	336	3
TAP	49	0	2
TAP	49	0	5
TAP	49	72	3
TAP	49	72	7
STR	49	144	0
SF_	49	144	0	96	96	4
TAP	49	144	4
BRK	50	0	2
BRK	50	0	6
HLD	51	0	5	384
HLD	52	0	4	192
HLD	52	192	3	192
HLD	53	0	2	384
HLD	54	0	3	384
TAP	54	96	2
TAP	54	288	1
HLD	55	0	4	384
TAP	55	96	5
TAP	55	288	6
STR	56	0	0
SCR	56	0	0	96	48	2
TAP	56	96	3
STR	56	192	7
SCL	56	192	7	96	48	5
TAP	56	288	4
STR	57	0	3
SCL	57	0	3	96	48	1
STR	57	96	4
SCR	57	96	4	96	48	6
STR	57	192	0
SI_	57	192	0	96	48	4
BRK	57	288	7
TAP	58	0	6
TAP	58	48	5
TAP	58	96	4
TAP	58	144	3
STR	58	192	2
SI_	58	192	2	96	48	7
BRK	58	288	0
TAP	59	0	1
TAP	59	48	2
TAP	59	96	3
TAP	59	144	4
STR	59	192	5
SI_	59	192	5	96	48	0
BRK	59	240	7
BRK	59	288	7
TAP	60	0	6
TAP	60	48	5
TAP	60	96	4
BRK	60	96	7
TAP	60	192	2
TAP	60	240	1
BRK	60	288	0
TAP	60	288	3
TAP	61	0	4
TAP	61	0	6
TAP	61	48	4
TAP	61	48	6
TAP	61	144	1
TAP	61	144	3
TAP	61	192	1
TAP	61	192	3
TAP	61	264	2
TAP	61	264	5
BRK	61	336	0
BRK	61	336	7
TAP	62	0	1
TAP	62	48	2
TAP	62	96	3
TAP	62	144	4
STR	62	192	5
SI_	62	192	5	96	48	0
BRK	62	288	7
TAP	63	0	6
TAP	63	48	5
TAP	63	96	4
TAP	63	144	3
STR	63	192	2
SI_	63	192	2	96	48	7
BRK	63	240	0
BRK	63	288	0
TAP	64	0	1
TAP	64	48	2
BRK	64	96	0
TAP	64	96	3
TAP	64	192	5
TAP	64	240	6
TAP	64	288	4
BRK	64	288	7
STR	65	0	1
SXR	65	0	1	96	192	6
BRK	66	0	2
BRK	66	0	5
TAP	66	240	1
TAP	66	288	0
HLD	66	336	7	144
HLD	67	96	6	192
STR	67	288	5
SLR	67	288	5	96	96	1
HLD	68	0	2	144
HLD	68	144	3	144
STR	68	288	2
SLL	68	288	2	96	96	6
HLD	69	0	5	144
HLD	69	144	4	144
TAP	69	288	3
TAP	70	0	5
TAP	70	0	6
TAP	70	96	1
TAP	70	96	2
TAP	70	192	0
TAP	70	192	7
TAP	70	240	6
TAP	70	288	5
HLD	70	336	4	144
HLD	71	96	3	96
HLD	71	192	2	96
STR	71	288	1
SLR	71	288	1	96	96	5
HLD	72	0	6	144
HLD	72	144	7	144
STR	72	288	6
SLL	72	288	6	96	96	2
HLD	73	0	1	144
HLD	73	144	0	144
BRK	73	288	7
TAP	74	0	2
TAP	74	0	3
TAP	74	72	0
TAP	74	72	7
TAP	74	144	4
STR	74	144	5
SCR	74	144	5	96	72	0
TAP	74	240	1
TAP	74	288	2
TAP	74	336	3
TAP	75	0	4
TAP	75	0	5
TAP	75	72	0
TAP	75	72	7
STR	75	144	2
SCL	75	144	2	96	72	7
TAP	75	144	3
TAP	75	240	6
TAP	75	288	5
TAP	75	336	4
TAP	76	0	2
TAP	76	0	3
HLD	76	48	2	72
TAP	76	48	3
HLD	76	120	0	72
HLD	76	192	6	72
HLD	76	264	4	72
HLD	76	336	0	96
TAP	77	48	7
TAP	77	96	0
TAP	77	144	1
TAP	77	144	6
TAP	77	192	2
TAP	77	240	3
TAP	77	288	4
TAP	77	336	5
TAP	78	0	0
TAP	78	0	7
TAP	78	32	0
TAP	78	32	7
TAP	78	64	0
TAP	78	64	7
BRK	78	96	1
BRK	78	96	6
TAP	78	192	2
TAP	78	240	2
TAP	78	240	3
TAP	78	288	5
TAP	78	336	4
TAP	78	336	5
TAP	79	0	1
TAP	79	48	0
TAP	79	48	1
TAP	79	96	6
TAP	79	144	6
TAP	79	144	7
TAP	79	192	0
TAP	79	216	7
TAP	79	240	0
TAP	79	264	7
TAP	79	288	0
TAP	79	312	7
TAP	79	336	0
TAP	79	360	7
STR	80	0	0
SXL	80	0	0	96	192	4
SXR	80	0	0	96	192	4
STR	81	0	7
SI_	81	0	7	96	48	3
STR	81	144	0
SCL	81	144	0	96	72	5
SCR	81	144	0	96	72	2
STR	82	0	2
SLR	82	0	2	96	96	0
TAP	82	0	3
TAP	82	96	7
TAP	82	144	7
TAP	82	240	1
TAP	82	288	2
TAP	82	336	3
TAP	83	0	4
STR	83	0	5
SLL	83	0	5	96	96	7
TAP	83	96	0
TAP	83	144	0
TAP	83	240	6
TAP	83	288	5
TAP	83	336	4
TAP	84	0	2
STR	84	0	3
SI_	84	0	3	96	48	7
TAP	84	96	0
TAP	84	144	0
TAP	84	240	0
TAP	84	240	7
TAP	84	288	1
TAP	84	288	6
TAP	84	336	2
TAP	84	336	5
HLD	85	0	3	96
HLD	85	0	4	96
TAP	85	144	0
TAP	85	168	7
TAP	85	192	0
TAP	85	264	1
TAP	85	264	6
STR	85	336	3
SXR	85	336	3	96	336	0
STR	85	336	4
SXL	85	336	4	96	336	7
TAP	86	0	3
TAP	86	0	4

T_REC_TAP	485
T_REC_BRK	23
T_REC_XTP	0
T_REC_HLD	46
T_REC_XHO	0
T_REC_STR	34
T_REC_BST	1
T_REC_XST	0
T_REC_TTP	0
T_REC_THO	0
T_REC_SLD	42
T_REC_ALL	631
T_NUM_TAP	519
T_NUM_BRK	24
T_NUM_HLD	46
T_NUM_SLD	42
T_NUM_ALL	631
T_JUDGE_TAP	543
T_JUDGE_HLD	130
T_JUDGE_SLD	42
T_JUDGE_ALL	715
TTM_EACHPAIRS	137
TTM_SCR_TAP	259500
TTM_SCR_BRK	62400
TTM_SCR_HLD	46000
TTM_SCR_SLD	63000
TTM_SCR_ALL	430900
TTM_SCR_S	415650
TTM_SCR_SS	428500
TTM_RAT_ACV	10056

