VERSION	0.00.00	1.03.00
FES_MODE	0
BPM_DEF	165.000	165.000	165.000	165.000
MET_DEF	4	4
RESOLUTION	384
CLK_DEF	384
COMPATIBLE_CODE	MA2

BPM	0	0	165.000
MET	0	0	4	4

HLD	2	0	0	144
HLD	2	0	7	144
TAP	2	288	0
TAP	2	288	7
HLD	3	0	0	144
HLD	3	0	1	144
TAP	3	288	0
TAP	3	288	1
HLD	4	0	6	144
HLD	4	0	7	144
TAP	4	288	6
TAP	4	288	7
HLD	5	0	1	144
HLD	5	0	6	144
TAP	5	288	1
TAP	5	288	6
TAP	6	0	0
TAP	6	0	2
TAP	6	144	0
TAP	6	144	2
TAP	6	288	0
TAP	6	288	1
TAP	7	0	5
TAP	7	0	7
TAP	7	144	5
TAP	7	144	7
TAP	7	288	6
TAP	7	288	7
TAP	8	0	1
TAP	8	0	3
TAP	8	144	1
TAP	8	144	3
TAP	8	288	2
TAP	8	288	3
TAP	9	0	4
TAP	9	0	6
TAP	9	96	4
TAP	9	96	5
TAP	9	192	1
TAP	9	192	3
TAP	9	288	2
TAP	9	288	3
TAP	10	0	7
TAP	10	96	6
TAP	10	192	5
TAP	10	288	4
TAP	11	0	3
TAP	11	96	2
TAP	11	192	1
TAP	11	288	0
TAP	12	0	0
TAP	12	96	1
TAP	12	192	2
TAP	12	288	3
TAP	13	0	4
TAP	13	96	5
TAP	13	192	6
TAP	13	288	7
STR	14	0	0
SI_	14	0	0	96	48	2
STR	14	192	7
SI_	14	192	7	96	48	5
STR	15	0	0
SI_	15	0	0	96	48	3
STR	15	192	7
SI_	15	192	7	96	48	4
STR	16	0	0
SI_	16	0	0	96	48	4
STR	16	192	7
SI_	16	192	7	96	48	3
TAP	17	0	0
TAP	17	96	1
TAP	17	96	6
TAP	17	192	2
TAP	17	192	5
BRK	17	288	3
BRK	17	288	4
TAP	18	0	2
TAP	18	96	3
TAP	18	192	1
TAP	18	288	2
TAP	18	288	3
TAP	19	0	5
TAP	19	96	4
TAP	19	192	6
TAP	19	288	4
TAP	19	288	5
TAP	20	0	2
TAP	20	96	3
TAP	20	192	1
TAP	20	288	3
TAP	20	288	4
TAP	21	0	5
TAP	21	96	4
TAP	21	192	6
TAP	21	288	3
TAP	21	288	4
TAP	22	0	1
TAP	22	96	0
TAP	22	192	2
TAP	22	288	0
TAP	22	288	1
TAP	23	0	6
TAP	23	96	7
TAP	23	192	5
TAP	23	288	6
TAP	23	288	7
TAP	24	0	1
TAP	24	96	0
TAP	24	192	2
TAP	24	288	0
TAP	24	288	7
TAP	25	0	6
TAP	25	96	7
TAP	25	192	5
BRK	25	288	0
BRK	25	288	7
HLD	26	0	2	96
TAP	26	96	3
HLD	26	192	5	96
TAP	26	288	4
HLD	27	0	1	96
TAP	27	96	2
HLD	27	192	6	96
TAP	27	288	5
HLD	28	0	3	288
TAP	28	96	4
TAP	28	192	4
TAP	28	288	4
HLD	29	0	4	288
TAP	29	96	3
TAP	29	192	3
TAP	29	288	3
HLD	30	0	1	96
TAP	30	96	0
HLD	30	192	6	96
TAP	30	288	7
HLD	31	0	1	96
TAP	31	96	2
HLD	31	192	6	96
TAP	31	288	5
HLD	32	0	1	96
TAP	32	96	0
HLD	32	192	6	96
TAP	32	288	7
HLD	33	0	2	96
TAP	33	96	0
HLD	33	192	5	96
TAP	33	288	7
STR	34	0	1
SI_	34	0	1	96	48	4
STR	34	192	6
SI_	34	192	6	96	48	3
STR	35	0	2
SI_	35	0	2	96	48	7
STR	35	192	5
SI_	35	192	5	96	48	0
HLD	36	0	2	192
HLD	36	192	3	192
HLD	37	0	4	192
TAP	37	192	5
BRK	37	288	0
TAP	38	0	2
TAP	38	0	3
TAP	38	96	2
TAP	38	96	3
TAP	38	192	1
TAP	38	192	3
TAP	38	288	2
TAP	38	288	3
TAP	39	0	4
TAP	39	0	5
TAP	39	96	4
TAP	39	96	5
TAP	39	192	4
TAP	39	192	6
TAP	39	288	4
TAP	39	288	5
TAP	40	0	3
TAP	40	0	4
TAP	40	96	3
TAP	40	96	4
TAP	40	192	1
TAP	40	192	2
TAP	40	288	3
TAP	40	288	4
TAP	41	0	3
TAP	41	0	4
TAP	41	96	3
TAP	41	96	4
TAP	41	192	5
TAP	41	192	6
BRK	41	288	3
BRK	41	288	4
TAP	42	0	2
TAP	42	48	3
TAP	42	96	2
TAP	42	192	5
TAP	42	240	4
TAP	42	288	5
TAP	43	0	2
TAP	43	48	3
TAP	43	96	2
TAP	43	192	5
TAP	43	240	4
TAP	43	288	5
TAP	44	0	3
TAP	44	48	4
TAP	44	96	3
TAP	44	144	4
HLD	44	192	2	96
BRK	44	288	0
TAP	45	0	4
TAP	45	48	3
TAP	45	96	4
TAP	45	144	3
HLD	45	192	5	96
BRK	45	288	7
TAP	46	0	1
TAP	46	48	0
TAP	46	96	1
TAP	46	192	6
TAP	46	240	7
TAP	46	288	6
TAP	47	0	1
TAP	47	48	0
TAP	47	96	1
TAP	47	192	6
TAP	47	240	7
TAP	47	288	6
TAP	48	0	0
TAP	48	48	7
TAP	48	96	0
TAP	48	144	7
HLD	48	192	1	96
BRK	48	288	3
TAP	49	0	7
TAP	49	48	0
TAP	49	96	7
TAP	49	144	0
HLD	49	192	6	96
BRK	49	288	4
STR	50	0	0
SXL	50	0	0	96	480	3
STR	52	0	7
SXR	52	0	7	96	480	4
STR	54	0	1
SXR	54	0	1	96	480	6
STR	56	0	5
SXR	56	0	5	96	480	2
BRK	57	288	0
TAP	58	0	2
TAP	58	96	3
HLD	58	192	2	96
BRK	58	288	0
TAP	59	0	5
TAP	59	96	4
HLD	59	192	5	96
BRK	59	288	7
TAP	60	0	2
TAP	60	96	3
HLD	60	192	1	96
BRK	60	288	0
TAP	61	0	5
TAP	61	96	4
HLD	61	192	6	96
BRK	61	288	7
TAP	62	0	2
TAP	62	0	3
TAP	62	96	3
TAP	62	96	4
TAP	62	192	4
TAP	62	192	5
BRK	62	288	0
TAP	63	0	4
TAP	63	0	5
TAP	63	96	3
TAP	63	96	4
TAP	63	192	2
TAP	63	192	3
BRK	63	288	7
TAP	64	0	0
TAP	64	0	7
TAP	64	96	1
TAP	64	96	6
TAP	64	192	2
TAP	64	192	5
BRK	64	288	0
BRK	64	288	7
STR	65	0	6
SCR	65	0	6	96	192	1
TAP	66	0	3
TAP	66	96	3
TAP	66	192	3
TAP	66	288	3
TAP	67	0	4
TAP	67	96	4
TAP	67	192	4
TAP	67	288	4
TAP	68	0	2
TAP	68	96	2
TAP	68	192	2
TAP	68	288	2
TAP	69	0	5
TAP	69	96	5
TAP	69	192	5
TAP	69	288	5
TAP	70	0	7
TAP	70	96	7
TAP	70	192	6
TAP	70	288	6
TAP	71	0	5
TAP	71	96	5
TAP	71	192	4
TAP	71	288	4
TAP	72	0	3
TAP	72	96	3
TAP	72	192	2
TAP	72	288	2
TAP	73	0	1
TAP	73	96	1
TAP	73	192	0
TAP	73	192	7
BRK	73	288	1
BRK	73	288	6
TAP	74	0	1
TAP	74	48	0
TAP	74	96	1
TAP	74	192	6
TAP	74	240	7
TAP	74	288	6
TAP	75	0	2
TAP	75	48	3
TAP	75	96	2
TAP	75	192	5
TAP	75	240	4
TAP	75	288	5
TAP	76	0	0
TAP	76	48	7
TAP	76	96	0
TAP	76	144	7
TAP	76	192	0
TAP	76	240	7
TAP	76	288	1
TAP	76	288	6
TAP	77	0	4
TAP	77	48	3
TAP	77	96	4
TAP	77	144	3
TAP	77	192	4
TAP	77	240	3
TAP	77	288	2
TAP	77	288	5
STR	78	0	3
SI_	78	0	3	96	48	0
TAP	78	0	4
TAP	78	192	6
TAP	78	288	0
TAP	78	288	7
TAP	79	0	0
STR	79	0	7
SI_	79	0	7	96	48	4
TAP	79	192	2
TAP	79	288	3
TAP	79	288	4
TAP	80	0	0
TAP	80	48	7
TAP	80	96	0
TAP	80	144	7
TAP	80	192	0
TAP	80	240	7
TAP	80	288	0
TAP	80	336	7
HLD	81	0	1	288
HLD	81	0	6	288
TAP	82	0	2
TAP	82	0	3
TAP	82	144	2
TAP	82	144	3
TAP	82	288	1
TAP	82	288	4
TAP	83	0	4
TAP	83	0	5
TAP	83	144	4
TAP	83	144	5
TAP	83	288	3
TAP	83	288	6
TAP	84	0	0
TAP	84	0	1
TAP	84	144	0
TAP	84	144	1
TAP	84	288	2
TAP	84	288	7
TAP	85	0	6
TAP	85	0	7
TAP	85	96	0
TAP	85	96	5
TAP	85	192	1
TAP	85	192	4
STR	85	288	2
SCL	85	288	2	96	384	7
STR	85	288	3
SCR	85	288	3	96	384	6

T_REC_TAP	308
T_REC_BRK	22
T_REC_XTP	0
T_REC_HLD	35
T_REC_XHO	0
T_REC_STR	19
T_REC_BST	0
T_REC_XST	0
T_REC_TTP	0
T_REC_THO	0
T_REC_SLD	19
T_REC_ALL	403
T_NUM_TAP	327
T_NUM_BRK	22
T_NUM_HLD	35
T_NUM_SLD	19
T_NUM_ALL	403
T_JUDGE_TAP	349
T_JUDGE_HLD	100
T_JUDGE_SLD	19
T_JUDGE_ALL	468
TTM_EACHPAIRS	80
TTM_SCR_TAP	163500
TTM_SCR_BRK	57200
TTM_SCR_HLD	35000
TTM_SCR_SLD	28500
TTM_SCR_ALL	284200
TTM_SCR_S	273550
TTM_SCR_SS	282000
TTM_RAT_ACV	10078

