VERSION	0.00.00	1.03.00
FES_MODE	0
BPM_DEF	165.000	165.000	165.000	165.000
MET_DEF	4	4
RESOLUTION	384
CLK_DEF	384
COMPATIBLE_CODE	MA2

BPM	0	0	165.000
MET	0	0	4	4

TAP	2	0	0
TAP	2	96	0
TAP	2	192	1
TAP	3	0	2
TAP	3	96	2
TAP	3	192	3
TAP	4	0	4
TAP	4	96	4
TAP	4	192	5
TAP	5	0	6
TAP	5	96	6
TAP	5	192	0
TAP	5	192	7
TAP	6	0	7
TAP	6	96	7
TAP	6	192	6
TAP	7	0	5
TAP	7	96	5
TAP	7	192	4
TAP	8	0	3
TAP	8	96	3
TAP	8	192	2
TAP	9	0	1
TAP	9	96	1
TAP	9	192	0
TAP	9	192	7
TAP	10	0	0
TAP	10	96	0
TAP	10	192	0
TAP	10	192	1
TAP	11	0	1
TAP	11	96	1
TAP	11	192	0
TAP	11	192	1
TAP	12	0	2
TAP	12	96	2
TAP	12	192	2
TAP	12	192	3
TAP	13	0	3
TAP	13	96	3
TAP	13	192	2
TAP	13	192	3
TAP	14	0	4
TAP	14	96	4
TAP	14	192	4
TAP	14	192	5
TAP	15	0	5
TAP	15	96	5
TAP	15	192	4
TAP	15	192	5
TAP	16	0	6
TAP	16	96	6
TAP	16	192	6
TAP	16	192	7
TAP	17	0	7
TAP	17	96	7
TAP	17	192	6
TAP	17	192	7
TAP	18	0	7
TAP	18	96	7
TAP	18	192	6
TAP	18	288	6
TAP	19	0	7
TAP	19	96	7
TAP	19	192	6
TAP	19	192	7
TAP	20	0	5
TAP	20	96	5
TAP	20	192	4
TAP	20	288	4
TAP	21	0	5
TAP	21	96	5
TAP	21	192	4
TAP	21	192	5
TAP	22	0	3
TAP	22	96	3
TAP	22	192	2
TAP	22	288	2
TAP	23	0	3
TAP	23	96	3
TAP	23	192	2
TAP	23	192	3
TAP	24	0	1
TAP	24	96	1
TAP	24	192	0
TAP	24	288	0
TAP	25	0	1
TAP	25	96	1
TAP	25	192	0
TAP	25	192	1
TAP	26	0	0
TAP	26	96	0
TAP	26	192	1
TAP	26	288	1
TAP	27	0	0
TAP	27	96	0
TAP	27	192	0
TAP	27	192	1
TAP	28	0	2
TAP	28	96	2
TAP	28	192	3
TAP	28	288	3
TAP	29	0	2
TAP	29	96	2
TAP	29	192	2
TAP	29	192	3
TAP	30	0	4
TAP	30	96	4
TAP	30	192	5
TAP	30	288	5
TAP	31	0	4
TAP	31	96	4
TAP	31	192	4
TAP	31	192	5
TAP	32	0	6
TAP	32	96	6
TAP	32	192	7
TAP	32	288	7
TAP	33	0	6
TAP	33	96	6
TAP	33	192	6
TAP	33	192	7
HLD	34	0	0	192
HLD	34	0	7	192
HLD	35	0	1	192
HLD	35	0	6	192
HLD	36	0	2	192
HLD	36	0	5	192
HLD	37	0	3	192
HLD	37	0	4	192
STR	38	0	3
SI_	38	0	3	96	288	0
STR	40	0	4
SI_	40	0	4	96	288	7
TAP	42	0	0
TAP	42	96	0
TAP	42	192	1
TAP	42	288	1
TAP	43	0	2
TAP	43	96	2
TAP	43	192	2
TAP	43	192	3
TAP	44	0	2
TAP	44	96	2
TAP	44	192	3
TAP	44	288	3
TAP	45	0	4
TAP	45	96	4
TAP	45	192	4
TAP	45	192	5
TAP	46	0	4
TAP	46	96	4
TAP	46	192	5
TAP	46	288	5
TAP	47	0	6
TAP	47	96	6
TAP	47	192	6
TAP	47	192	7
TAP	48	0	6
TAP	48	96	6
TAP	48	192	7
TAP	48	288	7
TAP	49	0	0
TAP	49	96	0
TAP	49	192	0
TAP	49	192	7
HLD	50	0	0	1152
HLD	50	0	7	1152
TAP	54	0	6
TAP	54	0	7
TAP	54	96	6
TAP	54	96	7
TAP	54	192	6
TAP	54	192	7
TAP	55	0	4
TAP	55	0	5
TAP	55	96	4
TAP	55	96	5
TAP	55	192	4
TAP	55	192	5
TAP	56	0	2
TAP	56	0	3
TAP	56	96	2
TAP	56	96	3
TAP	56	192	2
TAP	56	192	3
TAP	57	0	0
TAP	57	0	1
TAP	57	96	0
TAP	57	96	1
TAP	57	192	0
TAP	57	192	1
TAP	58	0	7
TAP	58	96	7
TAP	58	192	6
TAP	58	288	6
TAP	59	0	5
TAP	59	96	5
TAP	59	192	4
TAP	59	192	5
TAP	60	0	5
TAP	60	96	5
TAP	60	192	4
TAP	60	288	4
TAP	61	0	3
TAP	61	96	3
TAP	61	192	2
TAP	61	192	3
TAP	62	0	3
TAP	62	96	3
TAP	62	192	2
TAP	62	288	2
TAP	63	0	1
TAP	63	96	1
TAP	63	192	0
TAP	63	192	1
TAP	64	0	1
TAP	64	96	1
TAP	64	192	0
TAP	64	288	0
TAP	65	0	7
TAP	65	96	7
TAP	65	192	0
TAP	65	192	7
TAP	66	0	7
TAP	66	96	7
TAP	66	192	6
TAP	66	288	6
TAP	67	0	7
TAP	67	96	6
TAP	67	192	6
TAP	67	192	7
TAP	68	0	5
TAP	68	96	5
TAP	68	192	4
TAP	68	288	4
TAP	69	0	5
TAP	69	96	4
TAP	69	192	4
TAP	69	192	5
TAP	70	0	3
TAP	70	96	3
TAP	70	192	2
TAP	70	288	2
TAP	71	0	3
TAP	71	96	2
TAP	71	192	2
TAP	71	192	3
TAP	72	0	1
TAP	72	96	1
TAP	72	192	0
TAP	72	288	0
TAP	73	0	0
TAP	73	0	7
TAP	73	96	0
TAP	73	96	7
BRK	73	192	0
BRK	73	192	7
TAP	74	0	0
TAP	74	96	0
TAP	74	192	1
TAP	74	288	1
TAP	75	0	2
TAP	75	96	2
TAP	75	192	3
TAP	75	288	3
TAP	76	0	4
TAP	76	96	4
TAP	76	192	5
TAP	76	288	5
TAP	77	0	6
TAP	77	96	6
TAP	77	192	0
TAP	77	192	7
TAP	78	0	7
TAP	78	96	7
TAP	78	192	6
TAP	78	288	6
TAP	79	0	5
TAP	79	96	5
TAP	79	192	4
TAP	79	288	4
TAP	80	0	3
TAP	80	96	3
TAP	80	192	2
TAP	80	288	2
TAP	81	0	1
TAP	81	96	1
TAP	81	192	0
TAP	81	192	7
TAP	82	0	1
TAP	82	96	2
TAP	82	192	3
TAP	82	288	4
TAP	83	0	5
TAP	83	96	6
TAP	83	192	0
TAP	83	192	7
TAP	84	0	6
TAP	84	96	5
TAP	84	192	4
TAP	84	288	3
TAP	85	0	2
TAP	85	96	1
TAP	85	192	0
TAP	85	192	7
TAP	85	288	0
TAP	85	288	7
HLD	86	0	1	384
HLD	86	0	6	384

T_REC_TAP	292
T_REC_BRK	2
T_REC_XTP	0
T_REC_HLD	12
T_REC_XHO	0
T_REC_STR	2
T_REC_BST	0
T_REC_XST	0
T_REC_TTP	0
T_REC_THO	0
T_REC_SLD	2
T_REC_ALL	310
T_NUM_TAP	294
T_NUM_BRK	2
T_NUM_HLD	12
T_NUM_SLD	2
T_NUM_ALL	310
T_JUDGE_TAP	296
T_JUDGE_HLD	96
T_JUDGE_SLD	2
T_JUDGE_ALL	394
TTM_EACHPAIRS	55
TTM_SCR_TAP	147000
TTM_SCR_BRK	5200
TTM_SCR_HLD	12000
TTM_SCR_SLD	3000
TTM_SCR_ALL	167200
TTM_SCR_S	162000
TTM_SCR_SS	167000
TTM_RAT_ACV	10011

