VERSION	0.00.00	1.03.00
FES_MODE	0
BPM_DEF	166.000	166.000	166.000	166.000
MET_DEF	4	4
RESOLUTION	384
CLK_DEF	384
COMPATIBLE_CODE	MA2

BPM	0	0	166.000
MET	0	0	4	4

HLD	1	0	5	96
HLD	1	144	4	96
HLD	1	144	6	96
STR	1	288	3
SXR	1	288	3	96	240	4
STR	1	288	7
SXR	1	288	7	96	240	0
HLD	3	0	2	96
HLD	3	144	1	96
HLD	3	144	3	96
STR	3	288	0
SXL	3	288	0	96	240	7
STR	3	288	4
SXL	3	288	4	96	240	3
BRK	5	0	0
BRK	5	0	4
TAP	5	48	7
TAP	5	96	6
TAP	5	144	5
TAP	5	168	4
TAP	5	216	4
TAP	5	240	5
TAP	5	288	3
TAP	5	288	6
TAP	6	0	2
TAP	6	0	7
TAP	6	48	0
TAP	6	96	1
TAP	6	144	2
TAP	6	168	3
TAP	6	216	3
TAP	6	240	2
TAP	6	288	4
TAP	6	312	3
TAP	6	336	4
TAP	7	0	0
TAP	7	0	5
TAP	7	48	7
TAP	7	96	6
TAP	7	144	5
TAP	7	168	4
TAP	7	216	4
TAP	7	240	5
STR	7	288	3
SI_	7	288	3	96	36	7
TAP	7	300	2
TAP	7	312	1
TAP	7	324	0
TAP	7	336	7
TAP	7	348	6
TAP	7	360	5
TAP	7	372	4
BRK	8	0	3
TAP	8	96	1
TAP	8	96	6
BST	8	144	0
SF_	8	144	0	96	60	4
TAP	8	144	7
TAP	9	0	6
TAP	9	24	7
TAP	9	48	6
TAP	9	72	7
TAP	9	120	1
TAP	9	144	0
TAP	9	168	1
TAP	9	192	0
TAP	9	240	1
TAP	9	240	7
TAP	9	264	1
TAP	9	264	7
TAP	9	312	0
TAP	9	312	6
TAP	9	336	0
TAP	9	336	6
HLD	10	0	5	48
HLD	10	48	3	48
TAP	10	96	4
TAP	10	120	4
BRK	10	168	2
BRK	10	168	5
TAP	10	240	1
TAP	10	240	7
TAP	10	264	1
TAP	10	264	7
TAP	10	312	2
TAP	10	312	6
TAP	10	336	2
TAP	10	336	6
TAP	11	0	5
TAP	11	24	4
TAP	11	48	5
TAP	11	72	4
TAP	11	120	2
TAP	11	144	3
TAP	11	168	2
TAP	11	192	3
TAP	11	240	2
TAP	11	240	4
TAP	11	264	2
TAP	11	264	4
TAP	11	312	3
TAP	11	312	5
TAP	11	336	3
TAP	11	336	5
TAP	12	0	1
TAP	12	0	6
TAP	12	48	2
TAP	12	48	5
TAP	12	96	3
HLD	12	96	4	72
TAP	12	168	6
TAP	12	216	7
TAP	12	264	0
TAP	12	264	4
TAP	12	288	0
TAP	12	288	4
TAP	12	336	1
TAP	12	336	6
TAP	13	0	2
TAP	13	24	3
TAP	13	48	2
TAP	13	72	3
TAP	13	120	5
TAP	13	144	4
TAP	13	168	5
TAP	13	192	4
TAP	13	240	3
TAP	13	240	5
TAP	13	264	3
TAP	13	264	5
TAP	13	312	2
TAP	13	312	4
TAP	13	336	2
TAP	13	336	4
HLD	14	0	1	48
HLD	14	48	7	48
TAP	14	96	0
TAP	14	120	0
BRK	14	168	1
BRK	14	168	6
TAP	14	240	3
TAP	14	240	5
TAP	14	264	3
TAP	14	264	5
TAP	14	312	2
TAP	14	312	6
TAP	14	336	2
TAP	14	336	6
TAP	15	0	1
TAP	15	24	0
TAP	15	48	1
TAP	15	72	0
TAP	15	120	6
TAP	15	144	7
TAP	15	168	6
TAP	15	192	7
TAP	15	240	0
TAP	15	240	6
TAP	15	264	0
TAP	15	264	6
TAP	15	312	1
TAP	15	312	7
TAP	15	336	1
TAP	15	336	7
STR	16	0	2
SXR	16	0	2	96	120	7
STR	16	0	3
SUR	16	0	3	96	120	6
TAP	16	48	2
TAP	16	48	3
BRK	16	288	0
BRK	16	288	5
BRK	16	336	2
BRK	16	336	7
TAP	17	0	3
TAP	17	0	4
TAP	17	96	4
HLD	17	96	5	96
TAP	17	144	3
HLD	17	192	2	96
TAP	17	240	3
HLD	17	288	4	96
TAP	17	336	2
HLD	18	0	1	96
TAP	18	48	2
HLD	18	96	3	96
TAP	18	144	1
TAP	18	192	0
TAP	18	216	2
TAP	18	240	0
TAP	18	264	2
BRK	18	288	1
STR	19	0	1
SCR	19	0	1	96	48	4
STR	19	48	4
SCR	19	48	4	96	48	7
STR	19	96	7
SXR	19	96	7	96	120	2
TAP	19	288	3
STR	20	0	6
SCL	20	0	6	96	48	3
STR	20	48	3
SCL	20	48	3	96	48	0
STR	20	96	0
SXL	20	96	0	96	120	5
TAP	20	288	4
TAP	21	0	0
TAP	21	0	7
HLD	21	96	2	96
TAP	21	96	3
TAP	21	144	4
HLD	21	192	5	96
TAP	21	240	4
HLD	21	288	3	96
TAP	21	336	5
HLD	22	0	6	96
TAP	22	48	5
HLD	22	96	4	96
TAP	22	144	6
TAP	22	192	7
TAP	22	216	5
TAP	22	240	7
TAP	22	264	5
BRK	22	288	6
STR	23	0	7
SCL	23	0	7	96	48	4
STR	23	48	4
SCL	23	48	4	96	48	1
STR	23	96	1
SXL	23	96	1	96	120	6
TAP	23	288	0
STR	24	0	0
SCR	24	0	0	96	48	3
STR	24	48	3
SCR	24	48	3	96	48	6
STR	24	96	6
SXR	24	96	6	96	120	1
TAP	24	288	7
TAP	25	0	0
HLD	25	0	7	144
TAP	25	96	1
HLD	25	144	1	96
HLD	25	240	2	96
HLD	25	336	6	96
HLD	26	48	5	336
BRK	26	144	6
BRK	26	192	4
BRK	26	240	7
BRK	26	288	3
BRK	26	336	0
BRK	27	0	2
TAP	27	96	2
TAP	27	96	3
TAP	27	144	4
TAP	27	192	4
TAP	27	192	5
TAP	27	240	3
TAP	27	288	2
TAP	27	288	3
HLD	27	336	2	48
HLD	27	336	3	48
TAP	28	48	4
TAP	28	48	5
HLD	28	96	4	48
HLD	28	96	5	48
TAP	28	192	1
TAP	28	216	3
TAP	28	240	2
TAP	28	288	6
TAP	28	312	4
TAP	28	336	5
TAP	29	0	1
HLD	29	48	1	96
TAP	29	96	3
HLD	29	144	3	96
TAP	29	192	4
HLD	29	240	4	96
TAP	29	288	6
STR	29	336	6
SI_	29	336	6	96	48	3
SCL	29	336	6	96	48	3
STR	30	48	6
SI_	30	48	6	96	48	1
SCR	30	48	6	96	48	1
STR	30	144	6
SI_	30	144	6	96	48	2
TAP	30	240	6
TAP	31	0	1
TAP	31	0	3
TAP	31	48	2
TAP	31	72	3
HLD	31	96	2	48
TAP	31	144	3
TAP	31	168	1
TAP	31	192	4
TAP	31	216	2
TAP	31	240	5
TAP	31	264	3
TAP	31	288	6
TAP	31	312	4
BRK	31	336	7
HLD	32	48	1	48
HLD	32	48	6	48
HLD	32	144	4	48
HLD	32	144	5	48
HLD	32	240	2	48
HLD	32	240	4	48
TAP	33	0	7
TAP	33	48	0
TAP	33	48	6
TAP	33	96	1
TAP	33	144	0
TAP	33	144	2
TAP	33	192	7
STR	33	240	0
SI_	33	240	0	96	36	3
TAP	33	240	6
TAP	33	288	1
STR	33	336	0
SI_	33	336	0	96	36	5
TAP	33	336	2
STR	34	48	0
SI_	34	48	0	96	36	3
TAP	34	48	6
TAP	34	144	0
TAP	34	144	2
TAP	34	240	4
TAP	34	240	5
TAP	34	288	6
BRK	34	336	0
BRK	34	336	7
TAP	35	48	1
TAP	35	48	7
TAP	35	96	6
TAP	35	144	5
TAP	35	144	7
TAP	35	192	0
TAP	35	240	1
STR	35	240	7
SI_	35	240	7	96	36	4
TAP	35	288	6
TAP	35	336	5
STR	35	336	7
SI_	35	336	7	96	36	2
TAP	36	48	1
STR	36	48	7
SI_	36	48	7	96	36	4
TAP	36	144	5
TAP	36	144	7
STR	36	240	2
SXR	36	240	2	96	120	7
STR	36	240	3
SXL	36	240	3	96	120	7
TAP	36	288	1
TAP	36	288	4
BRK	36	336	2
BRK	36	336	3
TAP	37	144	0
TAP	37	144	6
TAP	37	240	2
TAP	37	240	3
TAP	37	288	3
TAP	37	288	4
TAP	37	336	4
HLD	37	336	5	144
TAP	38	0	6
TAP	38	16	7
TAP	38	32	0
TAP	38	48	1
TAP	38	64	2
TAP	38	80	3
TAP	38	96	4
TAP	38	192	6
TAP	38	216	7
TAP	38	240	5
TAP	38	288	1
TAP	38	312	0
TAP	38	336	2
STR	39	0	3
SSR	39	0	3	96	48	7
STR	39	0	4
SSL	39	0	4	96	48	0
TAP	39	192	1
TAP	39	216	7
TAP	39	240	1
TAP	39	264	7
TAP	39	288	0
TAP	39	336	0
BRK	40	0	0
TAP	40	12	1
TAP	40	12	7
TAP	40	24	2
TAP	40	24	6
TAP	40	36	3
TAP	40	36	5
STR	40	48	4
SF_	40	48	4	96	48	0
BRK	40	144	4
TAP	40	288	3
TAP	40	312	4
TAP	40	336	3
TAP	40	360	4
TAP	41	0	2
TAP	41	0	5
TAP	41	48	1
TAP	41	48	7
TAP	41	96	6
TAP	41	144	5
TAP	41	144	7
TAP	41	192	0
TAP	41	240	1
STR	41	240	7
SI_	41	240	7	96	36	4
TAP	41	288	6
TAP	41	336	5
STR	41	336	7
SI_	41	336	7	96	36	2
TAP	42	48	1
STR	42	48	7
SI_	42	48	7	96	36	4
TAP	42	144	5
TAP	42	144	7
TAP	42	240	2
TAP	42	240	3
TAP	42	288	1
BRK	42	336	0
BRK	42	336	7
TAP	43	48	0
TAP	43	48	6
TAP	43	96	1
TAP	43	144	0
TAP	43	144	2
TAP	43	192	7
STR	43	240	0
SI_	43	240	0	96	36	3
TAP	43	240	6
TAP	43	288	1
STR	43	336	0
SI_	43	336	0	96	36	5
TAP	43	336	2
STR	44	48	0
SI_	44	48	0	96	36	3
TAP	44	48	6
TAP	44	144	0
TAP	44	144	2
STR	44	240	4
SXR	44	240	4	96	120	0
STR	44	240	5
SXL	44	240	5	96	120	0
TAP	44	288	3
TAP	44	288	6
BRK	44	336	4
BRK	44	336	5
TAP	45	144	1
TAP	45	144	6
TAP	45	240	4
TAP	45	240	5
TAP	45	288	3
TAP	45	288	4
HLD	45	336	2	144
TAP	45	336	3
TAP	46	0	1
TAP	46	16	0
TAP	46	32	7
TAP	46	48	6
TAP	46	64	5
TAP	46	80	4
TAP	46	96	3
TAP	46	192	1
TAP	46	216	0
TAP	46	240	2
TAP	46	288	6
TAP	46	312	7
TAP	46	336	5
STR	47	0	3
SSR	47	0	3	96	48	7
STR	47	0	4
SSL	47	0	4	96	48	0
TAP	47	192	6
TAP	47	216	0
TAP	47	240	6
TAP	47	264	0
TAP	47	288	7
TAP	47	336	7
BRK	48	0	7
TAP	48	12	0
TAP	48	12	6
TAP	48	24	1
TAP	48	24	5
TAP	48	36	2
TAP	48	36	4
STR	48	48	3
SF_	48	48	3	96	48	7
BRK	48	144	3
TAP	48	288	2
TAP	48	288	5
BRK	48	336	0
BRK	48	336	7
STR	49	0	0
SCR	49	0	0	96	96	4
TAP	49	0	7
BST	49	96	4
SCR	49	96	4	96	96	0
BST	49	192	0
SCR	49	192	0	96	96	4
BST	49	288	4
SCR	49	288	4	96	96	0
BST	50	0	0
SCR	50	0	0	96	96	4
BST	50	96	4
SCR	50	96	4	96	96	0
BST	50	192	0
SCR	50	192	0	96	96	4
BRK	50	288	4
BST	51	0	7
SI_	51	0	7	96	36	2
SI_	51	0	7	96	36	4
BST	51	96	7
SI_	51	96	7	96	36	3
SI_	51	96	7	96	36	5
BST	51	192	7
SI_	51	192	7	96	36	2
SI_	51	192	7	96	36	4
BST	51	288	7
SI_	51	288	7	96	36	3
SI_	51	288	7	96	36	5
BST	52	0	7
SI_	52	0	7	96	36	2
SI_	52	0	7	96	36	4
BST	52	96	7
SI_	52	96	7	96	36	3
SI_	52	96	7	96	36	5
BST	52	192	7
SI_	52	192	7	96	36	2
SI_	52	192	7	96	36	4
BRK	52	288	7
TAP	53	0	1
TAP	53	24	0
TAP	53	48	1
TAP	53	72	0
TAP	53	120	6
TAP	53	144	7
TAP	53	168	6
TAP	53	192	7
TAP	53	240	0
TAP	53	240	5
TAP	53	264	0
TAP	53	264	5
TAP	53	312	2
TAP	53	312	7
TAP	53	336	2
TAP	53	336	7
HLD	54	0	2	48
HLD	54	48	4	48
TAP	54	96	3
TAP	54	120	3
BRK	54	168	2
BRK	54	168	5
TAP	54	240	0
TAP	54	240	5
TAP	54	264	0
TAP	54	264	5
TAP	54	312	2
TAP	54	312	7
TAP	54	336	2
TAP	54	336	7
TAP	55	0	5
TAP	55	24	4
TAP	55	48	5
TAP	55	72	4
TAP	55	120	2
TAP	55	144	3
TAP	55	168	2
TAP	55	192	3
TAP	55	240	1
TAP	55	240	4
TAP	55	264	1
TAP	55	264	4
TAP	55	312	3
TAP	55	312	6
TAP	55	336	3
TAP	55	336	6
STR	56	0	6
SXR	56	0	6	96	120	3
STR	56	0	7
SUR	56	0	7	96	120	2
TAP	56	48	6
TAP	56	48	7
BRK	56	288	1
BRK	56	288	4
BRK	56	336	3
BRK	56	336	6
HLD	57	0	0	144
TAP	57	0	7
TAP	57	96	6
HLD	57	144	6	96
HLD	57	240	5	96
HLD	57	336	1	96
HLD	58	48	2	336
BRK	58	144	1
BRK	58	192	3
BRK	58	240	0
BRK	58	288	4
BRK	58	336	7
BRK	59	0	5
TAP	59	96	4
TAP	59	96	5
TAP	59	144	3
TAP	59	192	2
TAP	59	192	3
TAP	59	240	4
TAP	59	288	4
TAP	59	288	5
HLD	59	336	4	48
HLD	59	336	5	48
TAP	60	48	2
TAP	60	48	3
HLD	60	96	2	48
HLD	60	96	3	48
TAP	60	192	6
TAP	60	216	4
TAP	60	240	5
TAP	60	288	1
TAP	60	312	3
TAP	60	336	2
TAP	61	0	6
HLD	61	48	6	96
TAP	61	96	4
HLD	61	144	4	96
TAP	61	192	3
HLD	61	240	3	96
TAP	61	288	1
STR	61	336	1
SI_	61	336	1	96	48	4
SCR	61	336	1	96	48	4
STR	62	48	1
SI_	62	48	1	96	48	6
SCL	62	48	1	96	48	6
STR	62	144	1
SI_	62	144	1	96	48	5
TAP	62	240	1
TAP	63	0	4
TAP	63	0	6
TAP	63	48	5
TAP	63	72	4
HLD	63	96	5	48
TAP	63	144	4
TAP	63	168	6
TAP	63	192	3
TAP	63	216	5
TAP	63	240	2
TAP	63	264	4
TAP	63	288	1
TAP	63	312	3
BRK	63	336	0
HLD	64	48	1	48
HLD	64	48	6	48
HLD	64	144	2	48
HLD	64	144	3	48
HLD	64	240	3	48
HLD	64	240	5	48
TAP	65	0	5
TAP	65	24	4
TAP	65	72	2
TAP	65	96	3
TAP	65	144	1
TAP	65	144	5
HLD	65	192	3	84
HLD	65	192	7	84
BRK	65	288	2
BRK	65	288	6
TAP	65	300	1
TAP	65	300	5
TAP	65	312	0
TAP	65	312	4
TAP	65	324	3
TAP	65	324	7
TAP	66	0	0
TAP	66	48	1
TAP	66	48	7
TAP	66	96	6
TAP	66	144	4
TAP	66	144	7
TAP	66	192	0
TAP	66	240	1
STR	66	240	7
SI_	66	240	7	96	36	3
TAP	66	288	0
TAP	66	288	6
TAP	66	336	4
STR	66	336	7
SI_	66	336	7	96	36	2
TAP	67	48	1
STR	67	48	7
SI_	67	48	7	96	36	4
TAP	67	144	5
TAP	67	144	7
TAP	67	240	2
TAP	67	240	3
TAP	67	288	1
BRK	67	336	0
BRK	67	336	7
TAP	68	48	0
TAP	68	48	6
TAP	68	96	1
TAP	68	144	0
TAP	68	144	3
TAP	68	192	7
STR	68	240	0
SI_	68	240	0	96	36	4
TAP	68	240	6
TAP	68	288	1
TAP	68	288	7
STR	68	336	0
SI_	68	336	0	96	36	5
TAP	68	336	3
STR	69	48	0
SI_	69	48	0	96	36	3
TAP	69	48	6
TAP	69	144	0
TAP	69	144	2
STR	69	240	4
SXR	69	240	4	96	120	0
STR	69	240	5
SXL	69	240	5	96	120	0
TAP	69	288	3
TAP	69	288	6
BRK	69	336	4
BRK	69	336	5
TAP	70	144	1
TAP	70	144	6
TAP	70	240	4
TAP	70	240	5
TAP	70	288	3
TAP	70	288	4
HLD	70	336	2	128
TAP	70	336	3
TAP	71	0	1
TAP	71	16	0
TAP	71	32	7
TAP	71	48	6
TAP	71	64	5
TAP	71	80	4
TAP	71	96	1
TAP	71	96	3
TAP	71	112	0
TAP	71	128	7
TAP	71	144	6
TAP	71	160	5
TAP	71	176	4
BRK	71	192	3
BRK	71	192	7
TAP	71	288	4
TAP	71	288	5
TAP	71	336	3
TAP	71	336	4
STR	72	0	2
SSR	72	0	2	96	48	6
STR	72	0	3
SSL	72	0	3	96	48	7
TAP	72	192	1
TAP	72	216	5
TAP	72	240	0
TAP	72	264	6
TAP	72	288	7
TAP	72	336	7
BRK	73	0	7
TAP	73	12	0
TAP	73	12	6
TAP	73	24	1
TAP	73	24	5
TAP	73	36	2
TAP	73	36	4
STR	73	48	3
SF_	73	48	3	96	48	7
BRK	73	144	3
TAP	73	288	4
TAP	73	312	3
TAP	73	336	4
TAP	73	360	3
TAP	74	0	2
TAP	74	0	5
TAP	74	48	0
TAP	74	48	6
TAP	74	96	1
TAP	74	144	0
TAP	74	144	3
TAP	74	192	7
STR	74	240	0
SI_	74	240	0	96	36	4
TAP	74	240	6
TAP	74	288	1
TAP	74	288	7
STR	74	336	0
SI_	74	336	0	96	36	5
TAP	74	336	3
STR	75	48	0
SI_	75	48	0	96	36	3
TAP	75	48	6
TAP	75	144	0
TAP	75	144	2
TAP	75	240	4
TAP	75	240	5
TAP	75	288	6
BRK	75	336	0
BRK	75	336	7
TAP	76	48	1
TAP	76	48	7
TAP	76	96	6
TAP	76	144	4
TAP	76	144	7
TAP	76	192	0
TAP	76	240	1
STR	76	240	7
SI_	76	240	7	96	36	3
TAP	76	288	0
TAP	76	288	6
TAP	76	336	4
STR	76	336	7
SI_	76	336	7	96	36	2
TAP	77	48	1
STR	77	48	7
SI_	77	48	7	96	36	4
TAP	77	144	5
TAP	77	144	7
STR	77	240	2
SXR	77	240	2	96	120	7
STR	77	240	3
SXL	77	240	3	96	120	7
TAP	77	288	1
TAP	77	288	4
BRK	77	336	2
BRK	77	336	3
TAP	78	144	1
TAP	78	144	6
TAP	78	240	2
TAP	78	240	3
TAP	78	288	3
TAP	78	288	4
TAP	78	336	4
HLD	78	336	5	128
TAP	79	0	6
TAP	79	16	7
TAP	79	32	0
TAP	79	48	1
TAP	79	64	2
TAP	79	80	3
TAP	79	96	4
TAP	79	96	6
TAP	79	112	7
TAP	79	128	0
TAP	79	144	1
TAP	79	160	2
TAP	79	176	3
BRK	79	192	0
BRK	79	192	4
TAP	79	288	2
TAP	79	288	3
TAP	79	336	3
TAP	79	336	4
STR	80	0	4
SSR	80	0	4	96	48	0
STR	80	0	5
SSL	80	0	5	96	48	1
TAP	80	192	6
TAP	80	216	2
TAP	80	240	7
TAP	80	264	1
TAP	80	288	0
TAP	80	336	0
BRK	81	0	0
TAP	81	12	1
TAP	81	12	7
TAP	81	24	2
TAP	81	24	6
TAP	81	36	3
TAP	81	36	5
STR	81	48	4
SF_	81	48	4	96	48	0
BRK	81	144	4
TAP	81	288	0
TAP	81	288	7
BRK	81	336	0
HLD	81	336	7	384
TAP	81	348	1
TAP	81	360	2
TAP	81	372	3
TAP	82	0	4
TAP	82	12	5
TAP	82	24	6
TAP	82	48	0
TAP	82	60	1
TAP	82	72	2
TAP	82	84	3
TAP	82	96	4
TAP	82	108	5
TAP	82	120	6
TAP	82	144	0
TAP	82	156	1
TAP	82	168	2
TAP	82	180	3
TAP	82	192	4
TAP	82	204	5
TAP	82	216	6
TAP	82	240	0
TAP	82	252	1
TAP	82	264	2
TAP	82	276	3
TAP	82	288	4
TAP	82	300	5
TAP	82	312	6
STR	82	336	0
SCR	82	336	0	96	240	7
SUL	82	336	0	96	240	7
TAP	84	0	2
TAP	84	24	3
TAP	84	48	1
TAP	84	72	0
TAP	84	120	5
TAP	84	144	4
TAP	84	168	6
TAP	84	192	7
TAP	84	240	0
TAP	84	240	4
TAP	84	264	0
TAP	84	264	4
TAP	84	312	2
TAP	84	312	6
TAP	84	336	2
TAP	84	336	6
TAP	85	0	1
TAP	85	0	6
TAP	85	48	2
TAP	85	48	5
HLD	85	96	3	72
TAP	85	96	4
TAP	85	168	1
TAP	85	216	0
TAP	85	264	3
TAP	85	264	7
TAP	85	288	3
TAP	85	288	7
TAP	85	336	1
TAP	85	336	6
TAP	86	0	5
TAP	86	24	4
TAP	86	48	6
TAP	86	72	7
TAP	86	120	2
TAP	86	144	3
TAP	86	168	1
TAP	86	192	0
TAP	86	240	3
TAP	86	240	7
TAP	86	264	3
TAP	86	264	7
TAP	86	312	1
TAP	86	312	5
TAP	86	336	1
TAP	86	336	5
HLD	87	0	2	48
HLD	87	48	0	48
TAP	87	96	1
TAP	87	120	1
BRK	87	168	2
BRK	87	168	7
TAP	87	240	1
TAP	87	240	5
TAP	87	264	1
TAP	87	264	5
TAP	87	312	3
TAP	87	312	7
TAP	87	336	3
TAP	87	336	7
TAP	88	0	2
TAP	88	24	3
TAP	88	48	1
TAP	88	72	0
TAP	88	120	5
TAP	88	144	4
TAP	88	168	6
TAP	88	192	7
TAP	88	240	0
TAP	88	240	4
TAP	88	264	0
TAP	88	264	4
TAP	88	312	2
TAP	88	312	6
TAP	88	336	2
TAP	88	336	6
STR	89	0	1
SXL	89	0	1	96	120	4
STR	89	0	5
SXL	89	0	5	96	120	0
TAP	89	48	2
TAP	89	48	6
BRK	89	288	2
BRK	89	288	6
BRK	89	336	0
BRK	89	336	4

T_REC_TAP	665
T_REC_BRK	74
T_REC_XTP	0
T_REC_HLD	71
T_REC_XHO	0
T_REC_STR	75
T_REC_BST	14
T_REC_XST	0
T_REC_TTP	0
T_REC_THO	0
T_REC_SLD	101
T_REC_ALL	1000
T_NUM_TAP	740
T_NUM_BRK	88
T_NUM_HLD	71
T_NUM_SLD	101
T_NUM_ALL	1000
T_JUDGE_TAP	828
T_JUDGE_HLD	134
T_JUDGE_SLD	101
T_JUDGE_ALL	1063
TTM_EACHPAIRS	241
TTM_SCR_TAP	370000
TTM_SCR_BRK	228800
TTM_SCR_HLD	71000
TTM_SCR_SLD	151500
TTM_SCR_ALL	821300
TTM_SCR_S	788150
TTM_SCR_SS	812500
TTM_RAT_ACV	10108

