VERSION	0.00.00	1.03.00
FES_MODE	0
BPM_DEF	166.000	166.000	166.000	166.000
MET_DEF	4	4
RESOLUTION	384
CLK_DEF	384
COMPATIBLE_CODE	MA2

BPM	0	0	166.000
MET	0	0	4	4

HLD	1	0	7	144
HLD	1	144	6	144
HLD	1	288	5	96
HLD	2	0	0	144
HLD	2	144	1	144
HLD	2	288	2	96
HLD	3	0	7	144
HLD	3	144	6	144
STR	3	288	5
SXR	3	288	5	96	288	7
TAP	5	0	1
TAP	5	48	0
TAP	5	96	1
TAP	5	144	0
TAP	5	192	2
TAP	5	240	3
TAP	5	288	2
TAP	5	336	3
TAP	6	0	7
TAP	6	48	6
TAP	6	96	7
TAP	6	144	6
TAP	6	192	4
TAP	6	192	5
TAP	6	288	4
TAP	6	288	5
TAP	7	0	6
TAP	7	48	7
TAP	7	96	6
TAP	7	144	7
TAP	7	192	5
TAP	7	240	4
TAP	7	288	5
TAP	7	336	4
STR	8	0	6
SUL	8	0	6	96	96	2
STR	8	96	7
SCR	8	96	7	96	96	2
TAP	8	144	7
BRK	8	288	7
TAP	9	0	1
TAP	9	24	0
TAP	9	48	1
TAP	9	72	0
TAP	9	120	2
TAP	9	144	2
TAP	9	192	6
TAP	9	216	7
TAP	9	240	6
TAP	9	264	7
TAP	9	312	5
TAP	9	336	5
TAP	10	0	2
TAP	10	0	3
TAP	10	48	4
TAP	10	48	5
TAP	10	96	1
TAP	10	96	6
TAP	10	144	0
TAP	10	168	7
TAP	10	216	7
TAP	10	240	0
TAP	10	288	0
TAP	10	288	7
TAP	10	336	1
TAP	10	336	6
TAP	11	0	6
TAP	11	24	7
TAP	11	48	6
TAP	11	72	7
TAP	11	120	5
TAP	11	144	5
TAP	11	192	1
TAP	11	216	0
TAP	11	240	1
TAP	11	264	0
TAP	11	312	2
TAP	11	336	2
TAP	12	0	4
TAP	12	0	5
TAP	12	48	2
TAP	12	48	3
TAP	12	96	1
TAP	12	96	6
TAP	12	144	7
TAP	12	168	0
TAP	12	216	0
TAP	12	240	7
TAP	12	288	0
TAP	12	288	7
TAP	12	336	1
TAP	12	336	6
TAP	13	0	2
TAP	13	24	3
TAP	13	48	2
TAP	13	72	3
TAP	13	120	1
TAP	13	144	1
TAP	13	192	5
TAP	13	216	4
TAP	13	240	5
TAP	13	264	4
TAP	13	312	6
TAP	13	336	6
TAP	14	0	0
TAP	14	0	1
TAP	14	48	6
TAP	14	48	7
TAP	14	96	2
TAP	14	96	5
TAP	14	144	3
TAP	14	168	4
TAP	14	216	4
TAP	14	240	3
TAP	14	288	3
TAP	14	288	4
TAP	14	336	2
TAP	14	336	5
TAP	15	0	5
TAP	15	24	4
TAP	15	48	5
TAP	15	72	4
TAP	15	120	6
TAP	15	144	6
TAP	15	192	2
TAP	15	216	3
TAP	15	240	2
TAP	15	264	3
TAP	15	312	1
TAP	15	336	1
TAP	16	0	4
TAP	16	24	3
TAP	16	48	5
TAP	16	72	2
TAP	16	96	6
TAP	16	120	1
TAP	16	144	7
TAP	16	168	0
TAP	16	192	6
TAP	16	204	5
TAP	16	216	4
TAP	16	228	3
TAP	16	240	2
TAP	16	252	1
TAP	16	264	0
TAP	16	276	7
BRK	16	288	6
TAP	17	0	2
TAP	17	0	3
TAP	17	48	1
TAP	17	96	2
TAP	17	96	3
TAP	17	144	4
TAP	17	192	2
TAP	17	192	3
TAP	17	240	0
TAP	17	288	2
TAP	17	288	3
TAP	17	336	5
TAP	18	0	2
TAP	18	0	3
TAP	18	48	7
TAP	18	96	2
TAP	18	96	3
TAP	18	144	6
TAP	18	192	0
TAP	18	216	5
TAP	18	240	1
TAP	18	264	4
TAP	18	288	2
TAP	18	288	3
TAP	19	0	4
TAP	19	0	5
TAP	19	48	6
TAP	19	96	4
TAP	19	96	5
TAP	19	144	3
TAP	19	192	4
TAP	19	192	5
TAP	19	240	7
TAP	19	288	4
TAP	19	288	5
TAP	19	336	2
TAP	20	0	4
TAP	20	0	5
TAP	20	48	0
TAP	20	96	4
TAP	20	96	5
TAP	20	144	1
TAP	20	192	7
TAP	20	216	2
TAP	20	240	6
TAP	20	264	3
TAP	20	288	4
TAP	20	288	5
TAP	21	0	0
TAP	21	0	1
TAP	21	48	2
TAP	21	96	0
TAP	21	96	1
TAP	21	144	7
TAP	21	192	0
TAP	21	192	1
TAP	21	240	3
TAP	21	288	0
TAP	21	288	1
TAP	21	336	6
TAP	22	0	0
TAP	22	0	1
TAP	22	48	4
TAP	22	96	0
TAP	22	96	1
TAP	22	144	5
TAP	22	192	3
TAP	22	216	6
TAP	22	240	2
TAP	22	264	7
TAP	22	288	0
TAP	22	288	1
TAP	23	0	6
TAP	23	0	7
TAP	23	48	5
TAP	23	96	6
TAP	23	96	7
TAP	23	144	0
TAP	23	192	6
TAP	23	192	7
TAP	23	240	4
TAP	23	288	6
TAP	23	288	7
TAP	23	336	1
TAP	24	0	1
TAP	24	0	3
TAP	24	96	4
TAP	24	96	6
TAP	24	144	2
TAP	24	144	5
TAP	24	240	0
TAP	24	240	2
TAP	24	288	5
TAP	24	288	7
TAP	24	336	1
TAP	24	336	6
TAP	25	0	2
TAP	25	0	3
TAP	25	96	4
TAP	25	96	5
TAP	25	144	1
TAP	25	144	2
TAP	25	240	5
TAP	25	240	6
STR	25	336	0
SI_	25	336	0	96	48	5
STR	25	336	1
SI_	25	336	1	96	48	4
TAP	26	48	0
TAP	26	48	1
HLD	26	192	5	48
HLD	26	240	4	48
HLD	26	288	3	48
HLD	26	336	2	48
TAP	27	0	1
HLD	27	96	2	48
HLD	27	144	3	48
HLD	27	192	4	48
HLD	27	240	5	48
TAP	27	288	6
TAP	27	336	4
TAP	27	336	7
TAP	28	48	1
TAP	28	48	2
STR	28	96	0
SCL	28	96	0	96	48	6
STR	28	96	3
SCR	28	96	3	96	48	5
TAP	28	192	0
TAP	28	192	3
TAP	28	288	1
TAP	28	288	5
TAP	29	0	0
TAP	29	0	7
TAP	29	48	0
TAP	29	48	7
TAP	29	96	1
TAP	29	96	6
TAP	29	144	1
TAP	29	144	6
TAP	29	192	2
TAP	29	192	5
STR	29	240	2
SCL	29	240	2	96	48	0
STR	29	240	5
SCR	29	240	5	96	48	7
TAP	29	288	2
TAP	29	288	5
STR	29	336	2
SI_	29	336	2	96	48	4
STR	29	336	5
SI_	29	336	5	96	48	3
STR	30	48	2
SXR	30	48	2	96	96	4
STR	30	48	5
SXL	30	48	5	96	96	3
STR	31	0	1
SI_	31	0	1	96	48	4
STR	31	48	6
SI_	31	48	6	96	48	3
TAP	31	96	1
TAP	31	144	6
TAP	31	288	4
BST	31	336	4
SCL	31	336	4	96	48	1
BST	32	48	4
SCR	32	48	4	96	48	6
BST	32	144	4
SF_	32	144	4	96	72	0
BRK	32	240	4
TAP	33	48	6
TAP	33	96	7
TAP	33	144	5
TAP	33	192	1
TAP	33	240	0
TAP	33	288	2
STR	33	336	6
SI_	33	336	6	96	48	3
STR	34	48	1
SI_	34	48	1	96	48	4
TAP	34	48	6
TAP	34	144	1
TAP	34	144	6
STR	34	240	6
SI_	34	240	6	96	48	2
STR	34	288	2
SI_	34	288	2	96	48	6
TAP	35	96	1
TAP	35	96	5
TAP	35	144	2
TAP	35	144	6
TAP	35	192	3
TAP	35	216	4
TAP	35	240	3
TAP	35	288	2
TAP	35	288	5
STR	35	336	2
SI_	35	336	2	96	48	7
TAP	36	48	2
STR	36	48	5
SI_	36	48	5	96	48	0
TAP	36	144	2
TAP	36	144	5
STR	36	240	2
SCL	36	240	2	96	48	7
STR	36	288	6
SCR	36	288	6	96	48	2
TAP	37	144	4
TAP	37	144	6
TAP	37	240	1
TAP	37	240	3
TAP	37	288	3
TAP	37	288	4
STR	37	336	2
SI_	37	336	2	96	48	7
STR	38	0	5
SI_	38	0	5	96	48	0
TAP	38	48	2
TAP	38	96	5
TAP	38	192	2
TAP	38	240	5
TAP	38	288	3
TAP	38	312	4
TAP	38	336	3
STR	39	0	1
SI_	39	0	1	96	48	4
STR	39	0	6
SI_	39	0	6	96	48	3
TAP	39	96	1
TAP	39	96	6
TAP	39	192	4
TAP	39	240	3
TAP	39	288	3
TAP	39	288	4
TAP	39	336	2
TAP	39	336	5
STR	40	0	4
SF_	40	0	4	96	96	0
TAP	40	48	4
TAP	40	240	1
TAP	40	240	5
TAP	40	288	3
TAP	40	288	7
TAP	41	0	2
TAP	41	48	2
TAP	41	96	3
TAP	41	144	1
TAP	41	192	5
TAP	41	240	4
TAP	41	288	6
STR	41	336	2
SI_	41	336	2	96	48	7
TAP	42	48	2
STR	42	48	5
SI_	42	48	5	96	48	0
TAP	42	144	2
TAP	42	144	5
STR	42	240	2
SI_	42	240	2	96	48	6
STR	42	288	6
SI_	42	288	6	96	48	2
TAP	43	96	1
TAP	43	96	5
TAP	43	144	2
TAP	43	144	6
TAP	43	192	7
TAP	43	216	0
TAP	43	240	7
TAP	43	288	1
TAP	43	288	6
STR	43	336	6
SI_	43	336	6	96	48	3
STR	44	48	1
SI_	44	48	1	96	48	4
TAP	44	48	6
TAP	44	144	1
TAP	44	144	6
STR	44	240	6
SCL	44	240	6	96	48	3
STR	44	288	2
SCR	44	288	2	96	48	6
TAP	45	144	1
TAP	45	144	3
TAP	45	240	4
TAP	45	240	6
TAP	45	288	3
TAP	45	288	4
STR	45	336	5
SI_	45	336	5	96	48	0
STR	46	0	2
SI_	46	0	2	96	48	7
TAP	46	48	5
TAP	46	96	2
TAP	46	192	1
TAP	46	192	5
TAP	46	240	2
TAP	46	240	6
TAP	46	288	7
TAP	46	312	0
TAP	46	336	7
STR	47	0	2
SI_	47	0	2	96	48	7
STR	47	0	5
SI_	47	0	5	96	48	0
TAP	47	96	2
TAP	47	96	5
TAP	47	192	0
TAP	47	240	7
TAP	47	288	0
TAP	47	288	7
TAP	47	336	1
TAP	47	336	6
STR	48	0	0
SF_	48	0	0	96	96	4
TAP	48	48	0
TAP	48	240	2
TAP	48	240	6
TAP	48	288	0
TAP	48	288	4
TAP	49	0	6
TAP	49	24	7
TAP	49	48	6
TAP	49	72	0
TAP	49	120	5
TAP	49	144	5
TAP	49	192	1
TAP	49	216	0
TAP	49	240	1
TAP	49	264	7
TAP	49	312	2
TAP	49	336	2
TAP	50	0	2
TAP	50	0	3
TAP	50	48	4
TAP	50	48	5
TAP	50	96	1
TAP	50	96	6
TAP	50	144	0
TAP	50	168	7
TAP	50	216	7
TAP	50	240	1
TAP	50	288	0
TAP	50	288	7
TAP	50	336	1
TAP	50	336	6
TAP	51	0	1
TAP	51	24	0
TAP	51	48	1
TAP	51	72	7
TAP	51	120	2
TAP	51	144	2
TAP	51	192	6
TAP	51	216	7
TAP	51	240	6
TAP	51	264	0
TAP	51	312	5
TAP	51	336	5
TAP	52	0	4
TAP	52	0	5
TAP	52	48	2
TAP	52	48	3
TAP	52	96	1
TAP	52	96	6
TAP	52	144	7
TAP	52	168	0
TAP	52	216	0
TAP	52	240	6
TAP	52	288	0
TAP	52	288	7
TAP	52	336	1
TAP	52	336	6
TAP	53	0	5
TAP	53	24	4
TAP	53	48	5
TAP	53	72	3
TAP	53	120	6
TAP	53	144	6
TAP	53	192	2
TAP	53	216	3
TAP	53	240	2
TAP	53	264	4
TAP	53	312	1
TAP	53	336	1
TAP	54	0	0
TAP	54	0	1
TAP	54	48	6
TAP	54	48	7
TAP	54	96	2
TAP	54	96	5
TAP	54	144	3
TAP	54	168	4
TAP	54	216	4
TAP	54	240	2
TAP	54	288	3
TAP	54	288	4
TAP	54	336	2
TAP	54	336	5
TAP	55	0	2
TAP	55	24	3
TAP	55	48	2
TAP	55	72	4
TAP	55	120	1
TAP	55	144	1
TAP	55	192	5
TAP	55	216	4
TAP	55	240	5
TAP	55	264	3
TAP	55	312	6
TAP	55	336	6
TAP	56	0	3
TAP	56	24	4
TAP	56	48	2
TAP	56	72	5
TAP	56	96	1
TAP	56	120	6
TAP	56	144	0
TAP	56	168	7
TAP	56	192	1
TAP	56	204	2
TAP	56	216	3
TAP	56	228	4
TAP	56	240	5
TAP	56	252	6
TAP	56	264	7
TAP	56	276	0
BRK	56	288	1
HLD	57	0	2	96
TAP	57	0	3
TAP	57	96	7
TAP	57	144	4
HLD	57	144	5	96
TAP	57	240	0
STR	57	336	1
SI_	57	336	1	96	48	4
STR	57	336	6
SI_	57	336	6	96	48	3
HLD	58	192	1	48
HLD	58	240	2	48
HLD	58	288	3	48
HLD	58	336	4	48
TAP	59	0	5
HLD	59	96	6	48
HLD	59	144	5	48
HLD	59	192	4	48
HLD	59	240	3	48
TAP	59	288	2
TAP	59	336	2
TAP	60	48	1
STR	60	96	1
SCR	60	96	1	96	96	4
TAP	60	192	0
TAP	60	288	0
TAP	61	0	1
TAP	61	48	0
TAP	61	96	1
TAP	61	144	6
TAP	61	192	7
TAP	61	240	6
TAP	61	288	0
TAP	61	336	2
TAP	61	336	7
TAP	62	48	0
TAP	62	48	5
STR	62	144	3
SI_	62	144	3	96	48	1
STR	62	144	4
SI_	62	144	4	96	48	6
HLD	63	0	0	96
HLD	63	0	1	96
HLD	63	144	6	96
HLD	63	144	7	96
TAP	63	288	1
TAP	63	288	6
TAP	63	336	1
TAP	63	336	6
TAP	64	48	2
TAP	64	48	5
TAP	64	96	2
TAP	64	96	5
TAP	64	144	3
TAP	64	144	4
TAP	64	240	1
TAP	64	240	6
TAP	65	0	0
TAP	65	24	7
TAP	65	48	1
TAP	65	72	6
TAP	65	96	0
TAP	65	120	7
TAP	65	144	1
TAP	65	168	6
BST	65	192	0
SI_	65	192	0	96	48	4
BRK	65	204	7
BRK	65	216	6
BRK	65	228	5
BRK	65	240	4
BRK	65	252	3
BRK	65	264	2
BRK	65	276	1
BRK	65	288	0
STR	66	48	1
SI_	66	48	1	96	48	5
TAP	66	96	0
TAP	66	144	1
STR	66	192	6
SI_	66	192	6	96	48	2
TAP	66	240	7
TAP	66	288	6
STR	66	336	1
SI_	66	336	1	96	48	4
TAP	67	48	1
STR	67	48	6
SI_	67	48	6	96	48	3
TAP	67	144	1
TAP	67	144	6
STR	67	240	1
SCR	67	240	1	96	48	5
STR	67	288	5
SCR	67	288	5	96	48	1
STR	68	96	3
SI_	68	96	3	96	48	7
STR	68	144	4
SI_	68	144	4	96	48	0
TAP	68	192	3
TAP	68	240	4
TAP	68	288	1
STR	68	336	2
SI_	68	336	2	96	48	7
TAP	69	48	2
STR	69	48	5
SI_	69	48	5	96	48	0
TAP	69	144	2
TAP	69	144	5
STR	69	240	1
SCL	69	240	1	96	48	5
STR	69	288	5
SCL	69	288	5	96	48	1
TAP	70	144	0
TAP	70	144	7
TAP	70	240	6
TAP	70	264	1
TAP	70	288	6
STR	70	336	1
SI_	70	336	1	96	48	5
STR	71	0	0
SI_	71	0	0	96	48	4
TAP	71	48	1
TAP	71	96	0
TAP	71	192	4
TAP	71	192	5
TAP	71	240	6
TAP	71	240	7
TAP	71	288	0
TAP	71	288	1
TAP	71	336	2
TAP	71	336	3
STR	72	0	4
SI_	72	0	4	96	48	1
STR	72	0	5
SI_	72	0	5	96	48	0
TAP	72	96	4
TAP	72	96	5
TAP	72	192	0
TAP	72	192	1
TAP	72	240	2
TAP	72	240	3
TAP	72	288	4
TAP	72	288	5
TAP	72	336	6
TAP	72	336	7
TAP	73	0	0
TAP	73	0	1
STR	73	48	0
SI_	73	48	0	96	48	5
STR	73	48	1
SI_	73	48	1	96	48	4
TAP	73	144	0
TAP	73	144	1
TAP	73	240	2
TAP	73	240	3
TAP	73	288	1
TAP	73	288	4
TAP	74	0	2
STR	74	48	2
SI_	74	48	2	96	48	6
TAP	74	96	3
TAP	74	144	2
STR	74	192	5
SI_	74	192	5	96	48	1
TAP	74	240	4
TAP	74	288	5
STR	74	336	2
SI_	74	336	2	96	48	7
TAP	75	48	2
STR	75	48	5
SI_	75	48	5	96	48	0
TAP	75	144	2
TAP	75	144	5
STR	75	240	2
SCL	75	240	2	96	48	6
STR	75	288	6
SCL	75	288	6	96	48	2
STR	76	96	7
SI_	76	96	7	96	48	3
STR	76	144	0
SI_	76	144	0	96	48	4
TAP	76	192	7
TAP	76	240	0
TAP	76	288	6
STR	76	336	1
SI_	76	336	1	96	48	4
TAP	77	48	1
STR	77	48	6
SI_	77	48	6	96	48	3
TAP	77	144	1
TAP	77	144	6
STR	77	240	2
SCR	77	240	2	96	48	6
STR	77	288	6
SCR	77	288	6	96	48	2
TAP	78	144	3
TAP	78	144	4
TAP	78	240	5
TAP	78	264	2
TAP	78	288	5
STR	78	336	2
SI_	78	336	2	96	48	6
STR	79	0	3
SI_	79	0	3	96	48	7
TAP	79	48	2
TAP	79	96	3
TAP	79	192	6
TAP	79	192	7
TAP	79	240	4
TAP	79	240	5
TAP	79	288	2
TAP	79	288	3
TAP	79	336	0
TAP	79	336	1
STR	80	0	6
SI_	80	0	6	96	48	3
STR	80	0	7
SI_	80	0	7	96	48	2
TAP	80	96	6
TAP	80	96	7
TAP	80	192	2
TAP	80	192	3
TAP	80	240	0
TAP	80	240	1
TAP	80	288	6
TAP	80	288	7
TAP	80	336	4
TAP	80	336	5
TAP	81	0	2
TAP	81	0	3
STR	81	48	2
SI_	81	48	2	96	48	7
STR	81	48	3
SI_	81	48	3	96	48	6
TAP	81	144	2
TAP	81	144	3
TAP	81	240	0
TAP	81	240	1
TAP	81	288	2
TAP	81	288	7
TAP	82	0	1
TAP	82	24	0
TAP	82	48	2
TAP	82	72	7
TAP	82	120	4
TAP	82	144	5
TAP	82	168	4
TAP	82	192	6
TAP	82	216	7
TAP	82	240	5
TAP	82	264	0
TAP	82	312	3
TAP	82	336	2
TAP	82	360	3
TAP	83	0	1
TAP	83	0	4
TAP	83	48	3
TAP	83	48	6
TAP	83	96	2
TAP	83	96	5
TAP	83	144	1
TAP	83	168	0
TAP	83	216	6
TAP	83	240	7
TAP	83	288	0
TAP	83	288	1
TAP	83	336	2
TAP	83	336	7
TAP	84	0	6
TAP	84	24	7
TAP	84	48	5
TAP	84	72	0
TAP	84	120	3
TAP	84	144	2
TAP	84	168	3
TAP	84	192	1
TAP	84	216	0
TAP	84	240	2
TAP	84	264	7
TAP	84	312	4
TAP	84	336	5
TAP	84	360	4
TAP	85	0	3
TAP	85	0	6
TAP	85	48	1
TAP	85	48	4
TAP	85	96	2
TAP	85	96	5
TAP	85	144	6
TAP	85	168	7
TAP	85	216	1
TAP	85	240	0
TAP	85	288	6
TAP	85	288	7
TAP	85	336	0
TAP	85	336	5
TAP	86	0	2
TAP	86	24	3
TAP	86	48	1
TAP	86	72	4
TAP	86	120	7
TAP	86	144	6
TAP	86	168	7
TAP	86	192	5
TAP	86	216	4
TAP	86	240	6
TAP	86	264	3
TAP	86	312	0
TAP	86	336	1
TAP	86	360	0
TAP	87	0	2
TAP	87	0	7
TAP	87	48	0
TAP	87	48	5
TAP	87	96	1
TAP	87	96	6
TAP	87	144	2
TAP	87	168	3
TAP	87	216	5
TAP	87	240	4
TAP	87	288	2
TAP	87	288	3
TAP	87	336	1
TAP	87	336	4
TAP	88	0	5
TAP	88	24	4
TAP	88	48	6
TAP	88	72	3
TAP	88	120	0
TAP	88	120	1
TAP	88	144	0
TAP	88	144	1
TAP	88	192	2
TAP	88	216	3
TAP	88	240	1
TAP	88	264	4
TAP	88	312	6
TAP	88	312	7
TAP	88	336	6
TAP	88	336	7
TAP	89	0	3
TAP	89	24	4
TAP	89	48	2
TAP	89	72	5
TAP	89	96	1
TAP	89	120	6
TAP	89	144	0
TAP	89	168	7
BST	89	192	0
SF_	89	192	0	96	48	4
BRK	89	204	1
BRK	89	216	2
BRK	89	228	3
BRK	89	240	4
BRK	89	252	5
BRK	89	264	6
BRK	89	276	7
BRK	89	288	0

T_REC_TAP	707
T_REC_BRK	20
T_REC_XTP	0
T_REC_HLD	30
T_REC_XHO	0
T_REC_STR	82
T_REC_BST	5
T_REC_XST	0
T_REC_TTP	0
T_REC_THO	0
T_REC_SLD	87
T_REC_ALL	931
T_NUM_TAP	789
T_NUM_BRK	25
T_NUM_HLD	30
T_NUM_SLD	87
T_NUM_ALL	931
T_JUDGE_TAP	814
T_JUDGE_HLD	50
T_JUDGE_SLD	87
T_JUDGE_ALL	951
TTM_EACHPAIRS	190
TTM_SCR_TAP	394500
TTM_SCR_BRK	65000
TTM_SCR_HLD	30000
TTM_SCR_SLD	130500
TTM_SCR_ALL	620000
TTM_SCR_S	599000
TTM_SCR_SS	617500
TTM_RAT_ACV	10040

