VERSION	0.00.00	1.03.00
FES_MODE	0
BPM_DEF	166.000	166.000	166.000	166.000
MET_DEF	4	4
RESOLUTION	384
CLK_DEF	384
COMPATIBLE_CODE	MA2

BPM	0	0	166.000

HLD	1	0	3	144
HLD	1	144	2	144
HLD	1	288	1	288
TAP	2	192	0
TAP	2	288	2
TAP	2	288	7
HLD	3	0	5	144
HLD	3	144	6	144
HLD	3	288	7	288
TAP	4	192	0
BRK	4	288	1
BRK	4	288	6
TAP	5	0	3
TAP	5	96	3
TAP	5	192	3
TAP	5	288	3
TAP	5	336	3
TAP	6	0	4
TAP	6	96	4
TAP	6	192	4
TAP	6	288	4
TAP	6	336	4
TAP	7	0	3
TAP	7	96	3
TAP	7	192	3
TAP	7	288	3
TAP	7	336	3
STR	8	0	4
SI_	8	0	4	96	48	1
STR	8	144	2
SI_	8	144	2	96	48	7
BRK	8	288	6
HLD	9	0	6	96
TAP	9	0	7
TAP	9	96	1
TAP	9	192	0
HLD	9	192	1	96
TAP	9	288	6
HLD	10	0	7	96
HLD	10	96	0	96
HLD	10	192	2	96
TAP	10	288	3
TAP	11	0	0
HLD	11	0	1	96
TAP	11	96	6
HLD	11	192	6	96
TAP	11	192	7
TAP	11	288	1
HLD	12	0	0	96
HLD	12	96	7	96
HLD	12	192	5	96
TAP	12	288	4
HLD	13	0	2	96
TAP	13	0	3
TAP	13	96	6
TAP	13	192	4
HLD	13	192	5	96
TAP	13	288	1
HLD	14	0	4	96
HLD	14	96	3	96
HLD	14	192	1	96
TAP	14	288	0
TAP	15	0	4
HLD	15	0	5	96
TAP	15	96	1
HLD	15	192	2	96
TAP	15	192	3
TAP	15	288	6
HLD	16	0	3	96
HLD	16	96	4	96
HLD	16	192	6	96
BRK	16	288	7
TAP	17	0	6
TAP	17	48	7
TAP	17	96	0
TAP	17	96	5
TAP	17	192	1
TAP	17	240	0
TAP	17	288	2
TAP	17	288	7
TAP	18	0	6
TAP	18	48	5
TAP	18	96	6
TAP	18	144	5
TAP	18	192	7
TAP	18	240	5
TAP	18	288	6
TAP	19	0	0
TAP	19	48	1
TAP	19	96	2
HLD	19	144	3	96
TAP	19	240	4
TAP	19	288	2
TAP	19	288	5
TAP	20	0	7
TAP	20	48	6
TAP	20	96	5
HLD	20	144	4	96
TAP	20	240	3
TAP	20	288	2
TAP	20	288	5
TAP	21	0	2
TAP	21	48	3
TAP	21	96	1
TAP	21	96	4
TAP	21	192	5
TAP	21	240	4
TAP	21	288	3
TAP	21	288	6
TAP	22	0	2
TAP	22	48	3
TAP	22	96	2
TAP	22	144	3
TAP	22	192	1
TAP	22	240	3
TAP	22	288	2
TAP	23	0	4
TAP	23	48	5
TAP	23	96	6
HLD	23	144	7	96
TAP	23	240	0
TAP	23	288	1
TAP	23	288	6
TAP	24	0	3
TAP	24	48	2
TAP	24	96	1
HLD	24	144	0	96
TAP	24	240	7
TAP	24	288	1
TAP	24	288	6
HLD	25	0	4	96
TAP	25	96	5
HLD	25	144	4	96
HLD	25	240	3	96
HLD	25	336	2	96
STR	26	48	1
SI_	26	48	1	96	48	5
TAP	26	192	7
TAP	26	240	7
TAP	26	288	0
TAP	26	288	6
HLD	27	0	3	96
TAP	27	96	2
HLD	27	144	3	96
HLD	27	240	4	96
HLD	27	336	5	96
STR	28	48	6
SI_	28	48	6	96	48	2
TAP	28	96	6
HLD	28	192	1	96
TAP	28	288	7
TAP	29	0	3
TAP	29	48	4
TAP	29	96	3
TAP	29	144	5
TAP	29	192	3
TAP	29	240	6
TAP	29	288	3
TAP	29	336	7
TAP	30	0	3
TAP	30	48	4
TAP	30	96	2
TAP	30	144	4
TAP	30	192	1
TAP	30	240	4
TAP	30	288	0
TAP	30	336	4
STR	31	0	0
SCR	31	0	0	96	48	3
STR	31	144	7
SCL	31	144	7	96	48	4
TAP	31	336	0
TAP	31	336	7
TAP	32	48	2
TAP	32	48	5
TAP	32	144	3
TAP	32	144	4
BRK	32	240	1
BRK	32	240	6
TAP	33	0	1
TAP	33	48	1
TAP	33	96	5
TAP	33	144	5
TAP	33	192	3
TAP	33	240	3
TAP	33	288	7
HLD	33	336	7	96
TAP	34	48	6
HLD	34	144	2	96
TAP	34	240	3
TAP	34	288	4
TAP	34	336	5
TAP	35	0	6
TAP	35	48	6
TAP	35	96	2
TAP	35	144	2
TAP	35	192	4
TAP	35	240	4
TAP	35	288	0
HLD	35	336	0	96
TAP	36	48	1
HLD	36	144	5	96
TAP	36	240	4
TAP	36	288	3
STR	36	336	2
SCR	36	336	2	96	48	5
HLD	37	144	7	96
TAP	37	240	0
TAP	37	288	7
STR	37	336	0
SF_	37	336	0	96	48	4
TAP	38	192	7
TAP	38	240	0
TAP	38	288	1
TAP	38	336	2
HLD	39	0	3	96
TAP	39	96	4
TAP	39	192	4
TAP	39	240	3
TAP	39	288	2
TAP	39	288	5
HLD	40	0	1	96
HLD	40	144	0	144
HLD	40	144	1	144
TAP	41	0	6
TAP	41	48	6
TAP	41	96	2
TAP	41	144	2
TAP	41	192	4
TAP	41	240	4
TAP	41	288	0
HLD	41	336	0	96
TAP	42	48	1
HLD	42	144	5	96
TAP	42	240	4
TAP	42	288	3
TAP	42	336	2
TAP	43	0	1
TAP	43	48	1
TAP	43	96	5
TAP	43	144	5
TAP	43	192	3
TAP	43	240	3
TAP	43	288	7
HLD	43	336	7	96
TAP	44	48	6
HLD	44	144	2	96
TAP	44	240	3
TAP	44	288	4
STR	44	336	5
SCL	44	336	5	96	48	2
HLD	45	144	0	96
TAP	45	240	7
TAP	45	288	0
STR	45	336	7
SF_	45	336	7	96	48	3
TAP	46	192	0
TAP	46	240	7
TAP	46	288	6
TAP	46	336	5
HLD	47	0	4	96
TAP	47	96	3
TAP	47	192	3
TAP	47	240	4
TAP	47	288	2
TAP	47	288	5
HLD	48	0	6	96
HLD	48	144	6	144
HLD	48	144	7	144
STR	48	336	6
SXR	48	336	6	96	240	3
STR	48	336	7
SXL	48	336	7	96	240	2
TAP	50	0	0
HLD	50	0	4	288
TAP	50	96	7
TAP	50	192	1
TAP	50	288	6
STR	51	0	0
SI_	51	0	0	96	48	2
STR	51	96	7
SI_	51	96	7	96	48	3
STR	51	192	0
SI_	51	192	0	96	48	4
STR	51	288	7
SI_	51	288	7	96	48	5
STR	52	0	0
SI_	52	0	0	96	48	2
STR	52	96	7
SI_	52	96	7	96	48	3
STR	52	192	0
SI_	52	192	0	96	48	4
TAP	52	288	7
TAP	53	0	6
TAP	53	0	7
TAP	53	96	6
TAP	53	96	7
TAP	53	192	0
TAP	53	192	1
TAP	53	288	0
TAP	53	288	1
TAP	54	0	0
TAP	54	0	6
TAP	54	96	4
TAP	54	96	6
TAP	54	192	2
TAP	54	192	4
TAP	54	288	0
TAP	54	288	2
TAP	55	0	0
TAP	55	48	0
TAP	55	96	1
TAP	55	144	1
TAP	55	192	2
TAP	55	240	2
TAP	55	288	3
TAP	55	336	3
TAP	56	0	4
TAP	56	48	4
TAP	56	96	5
TAP	56	144	5
TAP	56	192	6
TAP	56	240	6
TAP	56	288	0
TAP	56	288	7
HLD	57	0	1	336
TAP	57	144	6
TAP	57	240	6
TAP	57	336	6
HLD	58	0	6	336
TAP	58	144	4
TAP	58	240	4
TAP	58	336	4
HLD	59	0	4	336
TAP	59	144	3
TAP	59	240	3
TAP	59	336	3
HLD	60	0	3	336
TAP	60	144	1
TAP	60	240	1
TAP	60	336	1
STR	61	0	1
SI_	61	0	1	96	144	5
TAP	61	144	7
TAP	61	240	7
TAP	61	336	7
STR	62	0	7
SI_	62	0	7	96	144	3
TAP	62	144	0
TAP	62	240	0
TAP	62	336	0
HLD	63	0	0	96
HLD	63	0	4	96
HLD	63	144	2	96
HLD	63	144	6	96
TAP	63	336	1
TAP	63	336	5
TAP	64	48	3
TAP	64	48	7
STR	64	144	0
SI_	64	144	0	96	48	4
TAP	64	240	7
STR	65	0	1
SLR	65	0	1	96	96	0
STR	65	0	6
SLL	65	0	6	96	96	7
BRK	65	288	1
BRK	65	288	6
TAP	66	0	1
TAP	66	48	1
TAP	66	96	5
TAP	66	144	5
TAP	66	192	3
TAP	66	240	3
TAP	66	288	7
STR	66	336	7
SI_	66	336	7	96	48	3
TAP	67	48	0
STR	67	144	1
SI_	67	144	1	96	48	4
TAP	67	240	7
TAP	67	288	6
TAP	67	336	6
TAP	68	0	3
TAP	68	48	3
TAP	68	96	7
TAP	68	144	7
TAP	68	192	1
TAP	68	240	1
TAP	68	288	5
STR	68	336	4
SI_	68	336	4	96	48	0
STR	68	336	5
SI_	68	336	5	96	48	0
STR	69	144	2
SI_	69	144	2	96	48	7
STR	69	144	3
SI_	69	144	3	96	48	7
HLD	69	336	1	96
HLD	69	336	6	96
HLD	70	144	4	96
TAP	70	240	3
TAP	70	288	4
STR	70	336	3
SF_	70	336	3	96	48	7
TAP	71	192	4
TAP	71	240	3
TAP	71	288	2
TAP	71	336	1
STR	72	0	0
SCL	72	0	0	96	48	5
STR	72	0	1
SCR	72	0	1	96	48	4
TAP	72	192	7
TAP	72	240	0
TAP	72	288	1
TAP	72	288	6
HLD	73	0	6	96
HLD	73	0	7	96
HLD	73	144	0	144
HLD	73	144	5	144
TAP	74	0	6
TAP	74	48	6
TAP	74	96	2
TAP	74	144	2
TAP	74	192	4
TAP	74	240	4
TAP	74	288	0
STR	74	336	0
SI_	74	336	0	96	48	4
TAP	75	48	7
STR	75	144	6
SI_	75	144	6	96	48	3
TAP	75	240	0
TAP	75	288	1
TAP	75	336	1
TAP	76	0	4
TAP	76	48	4
TAP	76	96	0
TAP	76	144	0
TAP	76	192	6
TAP	76	240	6
TAP	76	288	2
STR	76	336	2
SI_	76	336	2	96	48	7
STR	76	336	3
SI_	76	336	3	96	48	7
STR	77	144	4
SI_	77	144	4	96	48	0
STR	77	144	5
SI_	77	144	5	96	48	0
HLD	77	336	1	96
HLD	77	336	6	96
HLD	78	144	3	96
TAP	78	240	4
TAP	78	288	3
STR	78	336	4
SF_	78	336	4	96	48	0
TAP	79	192	3
TAP	79	240	4
TAP	79	288	5
TAP	79	336	6
STR	80	0	6
SCL	80	0	6	96	48	3
STR	80	0	7
SCR	80	0	7	96	48	2
TAP	80	192	0
TAP	80	240	7
TAP	80	288	1
TAP	80	288	6
HLD	81	0	0	96
HLD	81	0	1	96
HLD	81	144	2	144
HLD	81	144	7	144
STR	81	336	0
SXR	81	336	0	96	240	5
STR	81	336	1
SXL	81	336	1	96	240	4
TAP	83	0	0
TAP	83	48	0
TAP	83	96	6
TAP	83	144	6
TAP	83	192	2
TAP	83	240	2
TAP	83	288	4
TAP	83	336	4
TAP	84	0	3
TAP	84	48	3
TAP	84	96	5
TAP	84	144	5
TAP	84	192	1
TAP	84	240	1
TAP	84	288	7
TAP	84	336	7
TAP	85	0	0
TAP	85	48	7
TAP	85	96	1
TAP	85	144	6
TAP	85	192	2
TAP	85	240	5
TAP	85	288	3
TAP	85	336	4
TAP	86	0	2
TAP	86	0	5
TAP	86	48	3
TAP	86	96	2
TAP	86	96	5
TAP	86	144	3
TAP	86	192	2
TAP	86	192	5
TAP	86	240	4
TAP	86	288	2
TAP	86	288	5
TAP	86	336	4
TAP	87	0	3
TAP	87	48	4
TAP	87	96	2
TAP	87	144	5
TAP	87	192	1
TAP	87	240	6
TAP	87	288	0
TAP	87	336	7
TAP	88	0	1
TAP	88	0	6
TAP	88	48	0
TAP	88	96	1
TAP	88	96	6
TAP	88	144	0
TAP	88	192	1
TAP	88	192	6
TAP	88	240	7
TAP	88	288	1
TAP	88	288	6
TAP	88	336	7
TAP	89	0	0
TAP	89	0	7
TAP	89	48	1
TAP	89	48	6
TAP	89	96	2
TAP	89	96	5
TAP	89	144	3
TAP	89	144	4
TAP	89	192	2
TAP	89	192	5
TAP	89	240	1
TAP	89	240	6
BRK	89	288	0
BRK	89	336	0

T_REC_TAP	370
T_REC_BRK	10
T_REC_XTP	0
T_REC_HLD	80
T_REC_XHO	0
T_REC_STR	44
T_REC_BST	0
T_REC_XST	0
T_REC_TTP	0
T_REC_THO	0
T_REC_SLD	44
T_REC_ALL	548
T_NUM_TAP	414
T_NUM_BRK	10
T_NUM_HLD	80
T_NUM_SLD	44
T_NUM_ALL	548
T_JUDGE_TAP	424
T_JUDGE_HLD	204
T_JUDGE_SLD	44
T_JUDGE_ALL	672
TTM_EACHPAIRS	73
TTM_SCR_TAP	207000
TTM_SCR_BRK	26000
TTM_SCR_HLD	80000
TTM_SCR_SLD	66000
TTM_SCR_ALL	379000
TTM_SCR_S	366700
TTM_SCR_SS	378000
TTM_RAT_ACV	10026

