VERSION	0.00.00	1.03.00
FES_MODE	0
BPM_DEF	166.000	166.000	166.000	166.000
MET_DEF	4	4
RESOLUTION	384
CLK_DEF	384
COMPATIBLE_CODE	MA2

BPM	0	0	166.000
MET	0	0	4	4

STR	1	0	2
SXR	1	0	2	96	480	6
STR	3	0	5
SXL	3	0	5	96	480	1
TAP	5	0	2
TAP	5	96	2
TAP	5	192	3
TAP	5	288	3
TAP	6	0	4
TAP	6	96	4
TAP	6	192	5
TAP	6	288	5
TAP	7	0	2
TAP	7	96	2
TAP	7	96	3
TAP	7	192	5
TAP	7	288	4
TAP	7	288	5
TAP	8	0	0
TAP	8	0	7
TAP	8	96	1
TAP	8	96	6
BRK	8	144	1
BRK	8	144	6
TAP	8	288	3
TAP	8	288	4
TAP	9	0	2
TAP	9	96	2
TAP	9	96	3
TAP	9	192	5
TAP	9	288	4
TAP	9	288	5
TAP	10	0	3
TAP	10	48	4
TAP	10	96	3
TAP	10	192	4
TAP	10	192	5
TAP	10	288	3
TAP	10	288	6
TAP	11	0	5
TAP	11	96	4
TAP	11	96	5
TAP	11	192	2
TAP	11	288	2
TAP	11	288	3
TAP	12	0	4
TAP	12	48	3
TAP	12	96	4
TAP	12	192	2
TAP	12	192	3
TAP	12	288	1
TAP	12	288	4
TAP	13	0	1
TAP	13	96	0
TAP	13	96	1
TAP	13	192	6
TAP	13	288	6
TAP	13	288	7
TAP	14	0	0
TAP	14	48	7
TAP	14	96	0
TAP	14	192	6
TAP	14	192	7
TAP	14	288	0
TAP	14	288	5
TAP	15	0	6
TAP	15	96	6
TAP	15	96	7
TAP	15	192	1
TAP	15	288	0
TAP	15	288	1
TAP	16	0	7
TAP	16	48	0
TAP	16	96	7
TAP	16	192	0
TAP	16	192	1
TAP	16	288	2
TAP	16	288	7
TAP	17	0	6
TAP	17	96	3
TAP	17	192	4
TAP	17	288	2
TAP	17	288	3
TAP	18	0	1
TAP	18	96	4
TAP	18	192	3
TAP	18	288	4
TAP	18	288	5
TAP	19	0	6
TAP	19	96	0
TAP	19	96	7
TAP	19	192	6
TAP	19	240	6
TAP	19	288	0
TAP	20	0	1
TAP	20	96	0
TAP	20	96	7
TAP	20	192	1
TAP	20	240	1
TAP	20	288	7
TAP	21	0	1
TAP	21	96	4
TAP	21	192	3
TAP	21	288	4
TAP	21	288	5
TAP	22	0	6
TAP	22	96	3
TAP	22	192	4
TAP	22	288	2
TAP	22	288	3
TAP	23	0	1
TAP	23	96	0
TAP	23	96	7
TAP	23	192	1
TAP	23	240	1
TAP	23	288	7
TAP	24	0	6
TAP	24	96	0
TAP	24	96	7
TAP	24	192	6
TAP	24	240	6
TAP	24	288	0
HLD	25	0	1	96
TAP	25	96	0
HLD	25	192	6	96
TAP	25	288	7
HLD	26	0	0	96
TAP	26	96	7
TAP	26	192	1
TAP	26	192	6
TAP	26	288	2
TAP	26	288	5
TAP	27	0	3
TAP	27	0	4
TAP	27	96	1
TAP	27	192	3
TAP	27	192	4
TAP	27	288	6
TAP	28	0	3
TAP	28	0	4
TAP	28	96	2
TAP	28	96	5
TAP	28	192	1
TAP	28	192	6
TAP	28	288	0
TAP	28	288	7
HLD	29	0	6	96
TAP	29	96	7
HLD	29	192	1	96
TAP	29	288	0
HLD	30	0	7	96
TAP	30	96	0
TAP	30	192	1
TAP	30	192	6
TAP	30	288	2
TAP	30	288	5
TAP	31	0	2
TAP	31	0	3
TAP	31	96	4
TAP	31	96	5
HLD	31	192	3	96
HLD	31	192	4	96
TAP	31	336	3
TAP	31	336	4
TAP	32	48	2
TAP	32	48	5
TAP	32	144	1
TAP	32	144	6
BRK	32	240	0
BRK	32	240	7
TAP	33	0	1
TAP	33	0	6
TAP	33	96	3
TAP	33	96	4
TAP	33	192	1
TAP	33	240	0
TAP	33	288	1
TAP	34	0	2
TAP	34	0	7
TAP	34	96	3
TAP	34	96	4
TAP	34	192	6
TAP	34	240	7
TAP	34	288	6
TAP	35	0	0
TAP	35	0	5
TAP	35	96	3
TAP	35	96	4
TAP	35	192	0
TAP	35	240	7
TAP	35	288	0
TAP	36	0	0
TAP	36	0	1
TAP	36	96	3
TAP	36	96	4
TAP	36	192	6
TAP	36	192	7
TAP	36	288	3
TAP	36	288	4
TAP	37	0	1
TAP	37	96	0
TAP	37	96	1
TAP	37	192	6
TAP	37	240	7
TAP	37	288	6
TAP	38	0	1
TAP	38	96	2
TAP	38	96	7
TAP	38	192	6
TAP	38	240	7
TAP	38	288	5
TAP	39	0	1
TAP	39	96	3
TAP	39	96	7
TAP	39	192	6
TAP	39	240	5
TAP	39	288	0
TAP	39	288	4
STR	40	0	1
SXR	40	0	1	96	192	4
TAP	41	0	7
TAP	41	96	4
TAP	41	96	5
TAP	41	192	6
TAP	41	240	7
TAP	41	288	6
TAP	42	0	0
TAP	42	0	5
TAP	42	96	2
TAP	42	96	3
TAP	42	192	1
TAP	42	240	0
TAP	42	288	1
TAP	43	0	2
TAP	43	0	7
TAP	43	96	3
TAP	43	96	4
TAP	43	192	7
TAP	43	240	0
TAP	43	288	7
TAP	44	0	6
TAP	44	0	7
TAP	44	96	2
TAP	44	96	3
TAP	44	192	0
TAP	44	192	1
TAP	44	288	4
TAP	44	288	5
TAP	45	0	6
TAP	45	96	6
TAP	45	96	7
TAP	45	192	1
TAP	45	240	0
TAP	45	288	1
TAP	46	0	6
TAP	46	96	0
TAP	46	96	5
TAP	46	192	1
TAP	46	240	0
TAP	46	288	2
TAP	47	0	6
TAP	47	96	0
TAP	47	96	4
TAP	47	192	1
TAP	47	240	2
TAP	47	288	3
TAP	47	288	7
STR	48	0	6
SXL	48	0	6	96	192	3
STR	49	0	2
SCL	49	0	2	96	192	5
TAP	50	0	3
TAP	50	96	4
TAP	50	192	5
TAP	50	288	6
TAP	50	288	7
TAP	51	0	5
TAP	51	96	4
TAP	51	96	5
TAP	51	192	2
TAP	51	288	2
TAP	51	288	3
TAP	52	0	4
TAP	52	96	3
TAP	52	192	2
TAP	52	288	0
TAP	52	288	1
TAP	53	0	7
TAP	53	96	0
TAP	53	96	6
TAP	53	192	5
TAP	53	288	4
TAP	53	288	6
TAP	54	0	3
TAP	54	96	4
TAP	54	192	5
TAP	54	288	6
TAP	54	288	7
TAP	55	0	0
TAP	55	96	1
TAP	55	96	7
TAP	55	192	2
TAP	55	288	1
TAP	55	288	3
TAP	56	0	4
TAP	56	96	3
TAP	56	192	2
TAP	56	288	0
TAP	56	288	1
STR	57	0	7
SLL	57	0	7	96	192	3
STR	58	0	6
SLL	58	0	6	96	192	2
TAP	59	0	1
TAP	59	96	2
TAP	59	192	3
TAP	59	288	4
TAP	60	0	5
TAP	60	96	4
TAP	60	96	6
TAP	60	192	2
TAP	60	288	1
TAP	60	288	3
STR	61	0	0
SLR	61	0	0	96	192	4
STR	62	0	1
SLR	62	0	1	96	192	5
TAP	63	0	6
TAP	63	96	5
HLD	63	192	3	96
HLD	63	192	4	96
TAP	63	336	3
TAP	63	336	4
TAP	64	48	2
TAP	64	48	5
TAP	64	144	1
TAP	64	144	6
BRK	64	240	0
BRK	64	240	7
STR	65	0	2
SCR	65	0	2	96	96	5
TAP	65	288	3
TAP	65	288	4
TAP	66	0	1
TAP	66	0	6
TAP	66	96	3
TAP	66	96	4
TAP	66	192	6
TAP	66	240	7
TAP	66	288	6
TAP	67	0	0
TAP	67	0	5
TAP	67	96	3
TAP	67	96	4
TAP	67	192	1
TAP	67	240	0
TAP	67	288	1
TAP	68	0	2
TAP	68	0	7
TAP	68	96	3
TAP	68	96	4
TAP	68	192	7
TAP	68	240	0
TAP	68	288	7
TAP	69	0	1
TAP	69	48	1
TAP	69	96	4
TAP	69	144	4
TAP	69	192	3
TAP	69	240	3
TAP	69	288	6
TAP	70	0	6
TAP	70	0	7
TAP	70	96	0
TAP	70	96	5
TAP	70	192	1
TAP	70	240	0
TAP	70	288	1
TAP	71	0	6
TAP	71	0	7
TAP	71	96	0
TAP	71	96	5
TAP	71	192	1
TAP	71	240	0
TAP	71	288	2
TAP	72	0	6
TAP	72	0	7
TAP	72	96	0
TAP	72	96	5
TAP	72	192	1
TAP	72	240	2
TAP	72	288	3
TAP	72	288	7
STR	73	0	6
SXL	73	0	6	96	192	2
TAP	74	0	0
TAP	74	96	2
TAP	74	96	3
TAP	74	192	1
TAP	74	240	0
TAP	74	288	1
TAP	75	0	2
TAP	75	0	7
TAP	75	96	4
TAP	75	96	5
TAP	75	192	6
TAP	75	240	7
TAP	75	288	6
TAP	76	0	0
TAP	76	0	5
TAP	76	96	3
TAP	76	96	4
TAP	76	192	0
TAP	76	240	7
TAP	76	288	0
TAP	77	0	6
TAP	77	48	6
TAP	77	96	3
TAP	77	144	3
TAP	77	192	4
TAP	77	240	4
TAP	77	288	1
TAP	78	0	0
TAP	78	0	1
TAP	78	96	2
TAP	78	96	7
TAP	78	192	6
TAP	78	240	7
TAP	78	288	6
TAP	79	0	0
TAP	79	0	1
TAP	79	96	2
TAP	79	96	7
TAP	79	192	6
TAP	79	240	7
TAP	79	288	5
TAP	80	0	0
TAP	80	0	1
TAP	80	96	2
TAP	80	96	7
TAP	80	192	6
TAP	80	240	5
TAP	80	288	0
TAP	80	288	4
STR	81	0	1
SXR	81	0	1	96	192	5
STR	82	0	6
SCL	82	0	6	96	192	1
TAP	83	0	4
TAP	83	48	4
TAP	83	96	3
TAP	83	144	3
TAP	83	192	5
TAP	83	288	3
TAP	83	288	7
TAP	84	0	1
TAP	84	48	0
TAP	84	96	1
TAP	84	192	6
TAP	84	240	7
TAP	84	288	6
TAP	85	0	3
TAP	85	48	3
TAP	85	96	4
TAP	85	144	4
TAP	85	192	2
TAP	85	288	0
TAP	85	288	4
TAP	86	0	5
TAP	86	48	4
TAP	86	96	6
TAP	86	192	2
TAP	86	240	3
TAP	86	288	1
TAP	87	0	7
TAP	87	48	7
TAP	87	96	1
TAP	87	144	1
TAP	87	192	6
TAP	87	288	0
TAP	87	288	4
TAP	88	0	2
TAP	88	48	3
TAP	88	96	1
TAP	88	192	5
TAP	88	240	4
TAP	88	288	6
TAP	89	0	0
TAP	89	48	0
TAP	89	96	6
TAP	89	144	6
TAP	89	192	1
TAP	89	240	1
TAP	89	288	7
TAP	89	336	7

T_REC_TAP	453
T_REC_BRK	6
T_REC_XTP	0
T_REC_HLD	10
T_REC_XHO	0
T_REC_STR	13
T_REC_BST	0
T_REC_XST	0
T_REC_TTP	0
T_REC_THO	0
T_REC_SLD	13
T_REC_ALL	495
T_NUM_TAP	466
T_NUM_BRK	6
T_NUM_HLD	10
T_NUM_SLD	13
T_NUM_ALL	495
T_JUDGE_TAP	472
T_JUDGE_HLD	20
T_JUDGE_SLD	13
T_JUDGE_ALL	505
TTM_EACHPAIRS	120
TTM_SCR_TAP	233000
TTM_SCR_BRK	15600
TTM_SCR_HLD	10000
TTM_SCR_SLD	19500
TTM_SCR_ALL	278100
TTM_SCR_S	269200
TTM_SCR_SS	277500
TTM_RAT_ACV	10021

